Velmi nebezpečné známosti / Cruel Intentions (1999)

Odpovědět
warup
Navigátor
Navigátor
Příspěvky: 1288
Registrován: 05 zář 2014 21:01
Dal poděkování: 2 poděkování
Dostal poděkování: 1 poděkování

Velmi nebezpečné známosti / Cruel Intentions (1999)

Příspěvek od warup » 13 bře 2018 14:29

Obrázek
Obrázek

info

Kód: Vybrat vše

https://www.csfd.cz/film/15379-velmi-nebezpecne-znamosti/prehled/
Kathryn (Sarah Michelle Gellar) a Sebastian (Ryan Phillippe) jsou dva bohatí zhýčkaní teenageři z té nejluxusnější části Manhattanu. A také papíroví sourozenci, protože jejich nechutně bohatí rodiče spolu uzavřeli manželství. Výraz zlatá mládež se ani zdaleka nepřibližuje jejich dekadentnímu životnímu stylu. Sebastian poznal všechny krásné dívky z Manhattanu a také Kathryn je na svůj věk neskutečně zhýralá. O to víc ji rozzuří, když dostane kopačky od svého přítele, který vyměnil její rafinovaný půvab za panenskou nevinnost naivní Cecile (Selma Blair). Kathryn proto s bratříčkem uzavře ďábelskou a náležitě pomstychtivou sázku. Pokud playboy Sebastian, kterému ještě nedokázala odolat žádná dívka, připraví Cecile o panenství a navíc dokáže svést další květ andělské nevinnosti Annette (Reese Witherspoon), připraví mu nevlastní sestřička noc plnou nadpozemské rozkoše. Pokud Sebastian prohraje, přijde o svého milovaného Jaguara, ročník 56...(oficiální text distributora)
kvalita
General
Complete name : D:\up\Velmi nebezpecne znamosti.3gp
Format : MPEG-4
Format profile : 3GPP Media Release 4
Codec ID : 3gp4
File size : 66.9 MiB
Duration : 1h 33mn
Overall bit rate : 100 Kbps
Encoded date : UTC 2008-07-13 20:15:05
Tagged date : UTC 2008-07-13 20:15:05

Video
ID : 3
Format : MPEG-4 Visual
Format profile : Simple@L2
Format settings, BVOP : Yes
Format settings, QPel : No
Format settings, GMC : No warppoints
Format settings, Matrix : Default (H.263)
Codec ID : 20
Duration : 1h 33mn
Bit rate mode : Constant
Bit rate : 87.8 Kbps
Width : 176 pixels
Height : 144 pixels
Display aspect ratio : 4:3
Original display aspect rat : 1.222
Frame rate mode : Variable
Frame rate : 6.154 fps
Minimum frame rate : 0.472 fps
Maximum frame rate : 6.250 fps
Color space : YUV
Bit depth : 8 bits
Scan type : Progressive
Compression mode : Lossy
Bits/(Pixel*Frame) : 0.563
Stream size : 58.4 MiB (87%)
Language : English
Encoded date : UTC 2008-07-13 20:15:05
Tagged date : UTC 2008-07-13 20:15:05

Audio
ID : 4
Format : AMR
Format/Info : Adaptive Multi-Rate
Format profile : Narrow band
Codec ID : samr
Duration : 1h 30mn
Bit rate mode : Constant
Bit rate : 12.8 Kbps
Channel(s) : 1 channel
Sampling rate : 8 000 Hz
Bit depth : 13 bits
Stream size : 8.29 MiB (12%)
Writing library : pvmm
Language : English
Encoded date : UTC 2008-07-13 20:15:05
Tagged date : UTC 2008-07-13 20:15:05

Other #1
ID : 1
Type : Scene description
Format : System
Codec ID : 1
Duration : 1h 33mn
Language : English
Encoded date : UTC 2008-07-13 20:15:05
Tagged date : UTC 2008-07-13 20:15:05

Other #2
ID : 2
Type : Object description
Format : System
Codec ID : 1
Duration : 1h 33mn
Language : English
Encoded date : UTC 2008-07-13 20:15:05
Tagged date : UTC 2008-07-13 20:15:05
download

Velmi nebezpecne znamosti

Kód: Vybrat vše

http://www.netshare.cz/967b0687c06f18e3/Velmi_nebezpecne_znamosti.3gp
Obrázek

Kód: Vybrat vše

http://datoid.cz/?p=143827  
Odpovědět

Zpět na „Filmy do mobilů“