Slavné tanky / Pz. Kpfw VI Tiger (2010)

Originální dvd dokumenty

Moderátor: KlopuX

Odpovědět
Uživatelský avatar
martanius
Palubní technik
Palubní technik
Příspěvky: 766
Registrován: 20 kvě 2009 18:46
Dostal poděkování: 24 poděkování

Slavné tanky / Pz. Kpfw VI Tiger (2010)

Příspěvek od martanius » 10 čer 2014 11:25

Obrázek

Nejznámější a nejobávanější tank německých ozbrojených sil. Více jak šestapadesátitunový, těžký tank Panzerkampfwagen PzKpfW VI - Tiger I zkonstruovaný firmou Henschel, byl za Druhé světové války nejznámějším a nejobávanějším tankem německých ozbrojených sil. Užívaly ho elitní tankové jednotky, jako byla divize Wehrmachtu Grossdeutschland, nebo divize zbraní SS Leibstandarte "Adolf Hitler", Das Reich či Totenkopf. Proslulosti dosáhl tento tank přesto, že oproti jiným tankům německé produkce byl vyroben ve velmi malém množství, necelých 1450 kusů, zatímco středních Pantherů (Pz KpfW V) bylo vyrobeno přes 6 000 kusů a Panzerů III a IV celkem více jak 14 000 kusů. V malém počtu vyrobených kusů jej "předčil" již jen jeho následovník, Tiger II, těch dostaly německé jednotky jen pět set kusů. Ačkoliv byl Tiger I velmi kvalitní a skvěle vybavený tank se silným motorem a výborným pancéřováním, vyzbrojený vynikajícím kanonem ráže 88 mm, vybavený moderní optikou, prostě tank špičkové úrovně, nemohl vzhledem k počtu vyrobených kusů výrazně ovlivnit výsledek bojů ani na západě, ani na východě. A to přesto, že vzbuzoval hrůzu jak u řidičů Shermanů, tak sovětských tanků T-34, které ničil v poměru 1: 18 (u Shermanů to bylo 1:10). Vždyť tanků Sherman bylo vyrobeno přes padesát tisíc a T-34 nejméně osmdesátpět tisíc. V našem dokumentu se s Tygrem I., s jeho konstrukcí, vlastnostmi, výzbrojí, ale i nedostatky a problémy při provozu blíže seznámíte. Uvidíte při tom filmové záběry, které dosud nebyly zveřejněny.

Kód: Vybrat vše

http://www.csfd.cz/film/291275-slavne-tanky/
Zvuk: 2.0 česky
Titulky: NE
Délka: 55 minut
Menu: ANO
Bonusy: NE
DVD5, 3.51GB

Kvalita

Obrázek

Kód: Vybrat vše

General
Complete name                            : H:\VIDEO_TS\VTS_03_1.VOB
Format                                   : MPEG-PS
File size                                : 1 000 MiB
Duration                                 : 16mn 47s
Overall bit rate                         : 8 328 Kbps

Video
ID                                       : 224 (0xE0)
Format                                   : MPEG Video
Format version                           : Version 2
Format profile                           : Main@Main
Format settings, BVOP                    : Yes
Format settings, Matrix                  : Custom
Format settings, GOP                     : Variable
Duration                                 : 16mn 47s
Bit rate                                 : 8 000 Kbps
Width                                    : 720 pixels
Height                                   : 576 pixels
Display aspect ratio                     : 4:3
Frame rate                               : 25.000 fps
Standard                                 : PAL
Color space                              : YUV
Chroma subsampling                       : 4:2:0
Bit depth                                : 8 bits
Scan type                                : Interlaced
Scan order                               : Bottom Field First
Compression mode                         : Lossy
Bits/(Pixel*Frame)                       : 0.772
Time code of first frame                 : 00:00:00:00
Time code source                         : Group of pictures header
Stream size                              : 957 MiB (96%)

Audio
ID                                       : 189 (0xBD)-128 (0x80)
Format                                   : AC-3
Format/Info                              : Audio Coding 3
Mode extension                           : CM (complete main)
Format settings, Endianness              : Big
Muxing mode                              : DVD-Video
Duration                                 : 16mn 46s
Bit rate mode                            : Constant
Bit rate                                 : 192 Kbps
Channel(s)                               : 2 channels
Channel positions                        : Front: L R
Sampling rate                            : 48.0 KHz
Bit depth                                : 16 bits
Compression mode                         : Lossy
Stream size                              : 23.0 MiB (2%)

Menu

Download

Kód: Vybrat vše

http://megarapid.cz/soubor/109934/slvntnky-dvd-part1_rar 
http://megarapid.cz/soubor/109935/slvntnky-dvd-part2_rar 
http://megarapid.cz/soubor/109938/slvntnky-dvd-part3_rar
http://megarapid.cz/soubor/109937/slvntnky-dvd-part4_rar  
Mé DVD uploady jsou čisté kopie originálů, bez komprese.
Odpovědět

Zpět na „Dokumenty“