Michael Jackson: Odkaz krále popu / Michael Jackso... (2009)

Originální dvd dokumenty

Moderátor: KlopuX

Odpovědět
Uživatelský avatar
martanius
Palubní technik
Palubní technik
Příspěvky: 766
Registrován: 20 kvě 2009 18:46
Dostal poděkování: 24 poděkování

Michael Jackson: Odkaz krále popu / Michael Jackso... (2009)

Příspěvek od martanius » 18 kvě 2014 20:18

Obrázek

Král popu v profilu in memoriam. Hlína na Jacksonově hrobě je stále zkypřená a už se objevují bouřlivé spekulace, že zpěvák nezemřel bez cizího zavinění, ale že jeho skon byla úkladná vražda. Důvod? Samozřejmě peníze. Michael Jackson se sice na sklonku života topil v dluzích, ale i tak by šlo o potenciálně velmi zajímavý terč. Nezapomínejme, že krom jiného vlastnil práva na skladby Beatles, jejichž hodnota se odhaduje na miliardu dolarů. Nejbouřlivěji hypotézu vraždy obhajuje Michaelova sestra La Toya Jackson, která je neochvějně přesvědčena, že bratrovi do hrobu někdo pomohl. A že nebyl sám. Podle La Toyi šlo o spiknutí, jehož cílem bylo dostat se k Jacksonovým penězům. ?Vím, kdo to udělal, ale z pochopitelných důvodů to neprozradím. Navíc policie stále provádí šetření, prohlásila v rozhovoru pro britský list News Of The World La Toya Jackson. Dodala, že Michael měl větší cenu živý než mrtvý a že navíc těsně před smrtí z Jacksonova domu zmizely šperky a hotovost. Dále se sestra slavného bratra rozpovídala v bulvárně laděné tiskovině Mail On Sunday: hřímala, že jejím bratrem bylo postrkováno jak s hračkou, že ho ?kdosi" donutil k podpisu smlouvy na padesát koncertů, že byl závislý na lécích a beznadějně osamělý. ?Nebudu mít klid, dokud nezjistím, kdo mého bratra zabil," zahrozila pěstí La Toya.

Kód: Vybrat vše

http://www.csfd.cz/film/272962-michael-jackson-odkaz/
Zvuk: 2.0 česky, anglicky
Titulky: česky
Délka: 74 minut
Menu: ANO
Bonusy: ANO
DVD5

Kvalita

Obrázek

Kód: Vybrat vše

General
Complete name                            : F:\VIDEO_TS\VTS_03_1.VOB
Format                                   : MPEG-PS
File size                                : 1 024 MiB
Duration                                 : 22mn 19s
Overall bit rate mode                    : Variable
Overall bit rate                         : 6 414 Kbps

Video
ID                                       : 224 (0xE0)
Format                                   : MPEG Video
Format version                           : Version 2
Format profile                           : Main@Main
Format settings, BVOP                    : Yes
Format settings, Matrix                  : Custom
Format settings, GOP                     : M=3, N=12
Duration                                 : 22mn 19s
Bit rate mode                            : Variable
Bit rate                                 : 5 646 Kbps
Maximum bit rate                         : 8 400 Kbps
Width                                    : 720 pixels
Height                                   : 576 pixels
Display aspect ratio                     : 4:3
Frame rate                               : 25.000 fps
Standard                                 : PAL
Color space                              : YUV
Chroma subsampling                       : 4:2:0
Bit depth                                : 8 bits
Scan type                                : Interlaced
Scan order                               : Top Field First
Compression mode                         : Lossy
Bits/(Pixel*Frame)                       : 0.545
Time code of first frame                 : 01:00:00:00
Time code source                         : Group of pictures header
Stream size                              : 901 MiB (88%)
Color primaries                          : BT.601 PAL
Transfer characteristics                 : BT.470 System B, BT.470 System G
Matrix coefficients                      : BT.601

Audio #1
ID                                       : 189 (0xBD)-128 (0x80)
Format                                   : AC-3
Format/Info                              : Audio Coding 3
Mode extension                           : CM (complete main)
Format settings, Endianness              : Big
Muxing mode                              : DVD-Video
Duration                                 : 22mn 18s
Bit rate mode                            : Constant
Bit rate                                 : 320 Kbps
Channel(s)                               : 2 channels
Channel positions                        : Front: L R
Sampling rate                            : 48.0 KHz
Bit depth                                : 16 bits
Compression mode                         : Lossy
Stream size                              : 51.1 MiB (5%)

Audio #2
ID                                       : 189 (0xBD)-129 (0x81)
Format                                   : AC-3
Format/Info                              : Audio Coding 3
Mode extension                           : CM (complete main)
Format settings, Endianness              : Big
Muxing mode                              : DVD-Video
Duration                                 : 22mn 18s
Bit rate mode                            : Constant
Bit rate                                 : 320 Kbps
Channel(s)                               : 2 channels
Channel positions                        : Front: L R
Sampling rate                            : 48.0 KHz
Bit depth                                : 16 bits
Compression mode                         : Lossy
Stream size                              : 51.1 MiB (5%)

Text
ID                                       : 189 (0xBD)-32 (0x20)
Format                                   : RLE
Format/Info                              : Run-length encoding
Muxing mode                              : DVD-Video

Menu

Download

Kód: Vybrat vše

http://www.sharerapid.cz/soubor/76555/mjodkazkrale-dvd-part1_rar 
http://www.sharerapid.cz/soubor/88739/mjodkazkrale-dvd-part3_rar 
http://www.sharerapid.cz/soubor/88742/mjodkazkrale-dvd-part2_rar 
http://www.sharerapid.cz/soubor/88748/mjodkazkrale-dvd-part4_rar 
Mé DVD uploady jsou čisté kopie originálů, bez komprese.
Odpovědět

Zpět na „Dokumenty“