MAAT

Moderátoři: sedum, pepislaf

Odpovědět
warup
Navigátor
Navigátor
Příspěvky: 1346
Registrován: 05 zář 2014 21:01
Dal poděkování: 2 poděkování
Dostal poděkování: 1 poděkování

MAAT

Příspěvek od warup » 06 zář 2014 19:57

Dead
Naposledy upravil(a) warup dne 02 dub 2018 13:49, celkem upraveno 1 x.
Obrázek

Kód: Vybrat vše

http://datoid.cz/?p=143827  
warup
Navigátor
Navigátor
Příspěvky: 1346
Registrován: 05 zář 2014 21:01
Dal poděkování: 2 poděkování
Dostal poděkování: 1 poděkování

MAAT

Příspěvek od warup » 07 zář 2014 09:24

Dead
Naposledy upravil(a) warup dne 02 dub 2018 14:45, celkem upraveno 2 x.
Obrázek

Kód: Vybrat vše

http://datoid.cz/?p=143827  
warup
Navigátor
Navigátor
Příspěvky: 1346
Registrován: 05 zář 2014 21:01
Dal poděkování: 2 poděkování
Dostal poděkování: 1 poděkování

MAAT

Příspěvek od warup » 18 zář 2014 17:40

MAAT [2013] Ze Tmy

Obrázek

info

Kód: Vybrat vše

http://www.bngr.cz/maat-predstavuji-tracklist-chystaneho-alba-ze-tmy/
Nové album ZE TMY od skupiny MAAT vychází opravdu za pár dní. O tom že je release date stanovený na 12. září jsme vás informovali už v našem předchozím článku. Nyní přišel čas na zveřejnění tracklistu. Na něm se objevilo celkem 15 stop, včetně několika hostů.

Release party se bude konat 13. září od 14:00 v nových prostorách PVP Labelu na adrese Bubenská 1477/1 Praha Holešovice (FB Event). Tam si budete moct nechat CD podepsat, zakoupit si plakáty, nebo nahlédnout do nového Blakk Studia. Pro ty, kteří se nedostaví, stále běží předprodej na webové adrese predprodej.pvplabel.com/predprodej/zetmy. Tam si do 10. září můžete koupit CD za krásných 250,-kč včetně balného a poštovného. Níže shlédněte slíbený tracklist a připomeňte si už dříve zveřejněný cover, nebo singl Ze Tmy.
kvalita
General
Complete name : D:\upload\1\MAAT [2013] Ze Tmy\01. Intro.mp3
Format : MPEG Audio
File size : 2.78 MiB
Duration : 1mn 12s
Overall bit rate mode : Variable
Overall bit rate : 320 Kbps
Encoded date : UTC 2013-09- 9 22:46:32
Writing library : LAME3.98.4
major_brand : mp42
minor_version : 0
compatible_brands : isommp42

Audio
Format : MPEG Audio
Format version : Version 1
Format profile : Layer 3
Mode : Joint stereo
Mode extension : MS Stereo
Duration : 1mn 12s
Bit rate mode : Variable
Bit rate : 320 Kbps
Channel(s) : 2 channels
Sampling rate : 44.1 KHz
Compression mode : Lossy
Stream size : 2.78 MiB (100%)
Writing library : LAME3.98.4
tracklist
01. Intro
02. Sám proti sobě (ft. Klára Střihavková)
03. Pod hladinou (ft. Ben Cristovao, Emeres)
04. Ztracený číslo (ft. Emeres)
05. Zpět (skit 1)
06. Stará kapitola
07. Já a ty (ft. DJ Wich)
08. Mozková příhoda
09. Architekt
10. Probuzení (skit 2)
11. Těžko se odchází
12. Ze tmy (ft. Henny)
13. Než zhasnou světla (ft. Livie Kuchařová)
14. Bez nás
15. Outro
download

quickshare

Kód: Vybrat vše

http://www.quickshare.cz/stahnout-soubor/1012567:maat-2013-ze-tmy.rar_100MB
Obrázek

Kód: Vybrat vše

http://datoid.cz/?p=143827  
warup
Navigátor
Navigátor
Příspěvky: 1346
Registrován: 05 zář 2014 21:01
Dal poděkování: 2 poděkování
Dostal poděkování: 1 poděkování

MAAT

Příspěvek od warup » 04 lis 2014 18:01

MAAT - Ze tmy (2013) by Pauliss

Obrázek

info

Kód: Vybrat vše

http://www.bbarak.cz/clanky/recenze/maat-ze-tmy-2013-pvp-label/
Možná až příliš pesimisticky vlétli kluci na pole releasů s novou deskou. Černá kronika jejich mysli. Nedostatky, kterých jsou si vědomi a nebojí se o nich otevřeně mluvit a vyzpovídat se z nich. Přestože je zpověď oblečena v hávu církevní kulisy, zpovídají se fanouškům, otvírají jim své niterno a snaží se pozvednout symbiózu mezi posluchačem a interpretem na jinou metu. Jedno jim nelze upřít ,a to jejich originálnost, kterou si pěstují již od prvopočátků a která je na naše končiny výjimečná, neboť u nás má každý tendenci tahat za již vydojené vemeno. Je možné, nebo možná až šíleně pravděpodobné, že člověk většinou stojí sám proti sobě. Tam začíná ten hlavní blok a končí i finální podlehnutí pocitu uspokojení se svým životem.Jsou chvíle, se kterými se musíš vypořádat sám. Bez přátel, kteří ti mohou podat pomocnou ruku, ale neudat tempo té cesty. Kde není vůle, nemůže být ani očekávání bleskových výsledků. L.D. i Fosco uběhli již dlouhou trať na svém atletickém stadionu. Z vyřvané flow, kterou se v republice zjevili a odstartovali svou dráhu v podvědomí posluchačů, přešli spíše ke kadenci, kterou technicky nezvládne každý. Už proto je možné o jejich tvorbě psát lehce v kladu, neboť na nich lze najít něco, čímž jsou na scéně specifičtí. Bohužel jsem zklamán slovní zásobou předvedenou na nové desce. Podle mě na úkor této flow se museli notně uskromnit. Je jasné, že čeština není zrovna výstavní jazyk na interpretaci, přesto se dá dobře ohýbat. Je tedy správné za každou cenu tlačit na rychlostní pilu, která v některých pasážích nemá ostré zoubky? MAAT: Technicky jsme v Český republice překonali téměř všechny. Krok tady určujeme my

Hosty by člověk neměl mít ve své hlavě, tudíž je kluci nemají ani na desce. Tedy alespoň ty rapové. Vokálové přírůstky tu máme. Hlavně je dosti patrné, že holky tu drtivě válcují chlapce. Klárka Střihavková má modernější nádech oproti Lívii Kuchařové, která by neurazila ani u táboráku. Ben Cristovao má zajímavou barvu hlasu, přesto jeho pasáž je na můj vkus až plánovitě a okatě líbivá. Hennyho hlas se mi z paměti rychle vytrácí, nevěštím mu velkou budoucnost. Návštěvníky máme i na beatu. Emeresovo dílo nevybočuje nějak z trendového pojmu, kterým se jeho tvorba vyznačuje. Wich zandal zajímavou netradiční věc, která nemá zase tak čitelný rukopis jeho zvuků, přesto pozitivní nádech v jeho práci. Zbytek podmazů z dílny Fosca musím hodnotit velice kladně, baví mě zápal pro to obstát na více frontách bojiště a je z nich cítit energie. Není vůbec na škodu, když si rapper umíchá vlastní odvar, neboť sám nejlépe vystihne svou náladu.

Bbarak.cz
Recenze
MAAT - Ze tmy (2013; PVP Label)

MAAT - Ze tmy (2013; PVP Label)

Možná až příliš pesimisticky vlétli kluci na pole releasů s novou deskou. Černá kronika jejich mysli. Nedostatky, kterých jsou si vědomi a nebojí se o nich otevřeně mluvit a vyzpovídat se z nich. Přestože je zpověď oblečena v hávu církevní kulisy, zpovídají se fanouškům, otvírají jim své niterno a snaží se pozvednout symbiózu mezi posluchačem a interpretem na jinou metu. Jedno jim nelze upřít ,a to jejich originálnost, kterou si pěstují již od prvopočátků a která je na naše končiny výjimečná, neboť u nás má každý tendenci tahat za již vydojené vemeno. Je možné, nebo možná až šíleně pravděpodobné, že člověk většinou stojí sám proti sobě. Tam začíná ten hlavní blok a končí i finální podlehnutí pocitu uspokojení se svým životem.
úterý 08. dubna 2014, 13:45

Jsou chvíle, se kterými se musíš vypořádat sám. Bez přátel, kteří ti mohou podat pomocnou ruku, ale neudat tempo té cesty. Kde není vůle, nemůže být ani očekávání bleskových výsledků. L.D. i Fosco uběhli již dlouhou trať na svém atletickém stadionu. Z vyřvané flow, kterou se v republice zjevili a odstartovali svou dráhu v podvědomí posluchačů, přešli spíše ke kadenci, kterou technicky nezvládne každý. Už proto je možné o jejich tvorbě psát lehce v kladu, neboť na nich lze najít něco, čímž jsou na scéně specifičtí. Bohužel jsem zklamán slovní zásobou předvedenou na nové desce. Podle mě na úkor této flow se museli notně uskromnit. Je jasné, že čeština není zrovna výstavní jazyk na interpretaci, přesto se dá dobře ohýbat. Je tedy správné za každou cenu tlačit na rychlostní pilu, která v některých pasážích nemá ostré zoubky?

MAAT: Technicky jsme v Český republice překonali téměř všechny. Krok tady určujeme my

Hosty by člověk neměl mít ve své hlavě, tudíž je kluci nemají ani na desce. Tedy alespoň ty rapové. Vokálové přírůstky tu máme. Hlavně je dosti patrné, že holky tu drtivě válcují chlapce. Klárka Střihavková má modernější nádech oproti Lívii Kuchařové, která by neurazila ani u táboráku. Ben Cristovao má zajímavou barvu hlasu, přesto jeho pasáž je na můj vkus až plánovitě a okatě líbivá. Hennyho hlas se mi z paměti rychle vytrácí, nevěštím mu velkou budoucnost. Návštěvníky máme i na beatu. Emeresovo dílo nevybočuje nějak z trendového pojmu, kterým se jeho tvorba vyznačuje. Wich zandal zajímavou netradiční věc, která nemá zase tak čitelný rukopis jeho zvuků, přesto pozitivní nádech v jeho práci. Zbytek podmazů z dílny Fosca musím hodnotit velice kladně, baví mě zápal pro to obstát na více frontách bojiště a je z nich cítit energie. Není vůbec na škodu, když si rapper umíchá vlastní odvar, neboť sám nejlépe vystihne svou náladu.

Myšlenku už máme, ventilovat ji taky umíme a nebojíme se otevřeně vypovědět před publikem. Co dál nám zajistí vytoužený úspěch? Zajímavě graficky zpracovaný cover není jen pozlátkem, ukrývá v sobě kouzlo, které posluchačská základna MAAT jistě ocení. Kluci stoupají postupně nahoru, přestože stále posluchače ostřelují jen okrajově. Chybí mi tu nějaké to kouzlo, které by zaútočilo do středu a vyvolalo by průlom na scéně, o kterém by se dalších deset let mluvilo. A když už jsme mluvili o niterním boji proti sobě samému, kluci budou muset svést boj možná i se svým egem, které má hlavně L.D. velmi ostré, což dokládal i název jeho sóla. Uvidíme, jak rovná je jejich hudební cesta, nebo zda nás překvapí nějakou ostrou zatáčkou.
kvalita
General
Complete name : D:\up\14\MAAT - Ze tmy (2013) by Pauliss\01. Intro.mp3
Format : MPEG Audio
File size : 2.78 MiB
Duration : 1mn 12s
Overall bit rate mode : Variable
Overall bit rate : 320 Kbps
Encoded date : UTC 2013-09- 9 22:46:32
Writing library : LAME3.98.4
major_brand : mp42
minor_version : 0
compatible_brands : isommp42

Audio
Format : MPEG Audio
Format version : Version 1
Format profile : Layer 3
Mode : Joint stereo
Mode extension : MS Stereo
Duration : 1mn 12s
Bit rate mode : Variable
Bit rate : 320 Kbps
Channel(s) : 2 channels
Sampling rate : 44.1 KHz
Compression mode : Lossy
Stream size : 2.78 MiB (100%)
Writing library : LAME3.98.4
tracklist
01. Intro
02. Sám proti sobě (ft. Klára Střihavková)
03. Pod hladinou (ft. Ben Cristovao, Emeres)
04. Ztracený číslo (ft. Emeres)
05. Zpět (skit 1)
06. Stará kapitola
07. Já a ty (ft. DJ Wich)
08. Mozková příhoda
09. Architekt
10. Probuzení (skit 2)
11. Těžko se odchází
12. Ze tmy (ft. Henny)
13. Než zhasnou světla (ft. Livie Kuchařová)
14. Bez nás
15. Outro
download

Kód: Vybrat vše

http://datoid.cz/fNXpL6/maat-ze-tmy-2013-by-pauliss-rar
Obrázek

Kód: Vybrat vše

http://datoid.cz/?p=143827  
warup
Navigátor
Navigátor
Příspěvky: 1346
Registrován: 05 zář 2014 21:01
Dal poděkování: 2 poděkování
Dostal poděkování: 1 poděkování

MAAT

Příspěvek od warup » 24 bře 2015 08:08

MAAT - ALL-IN 2010

Obrázek

info

Kód: Vybrat vše

https://www.youtube.com/watch?v=dMel2tJ9YOs
Produkce: Fosco Alma.
BOOKING MAAT: http://www.maat-rap.com/booking
kvalita
General
Complete name : E:\up\MAAT - ALL-IN 2010\01 Tak jak jsme chteli.mp3
Format : MPEG Audio
File size : 3.86 MiB
Duration : 4mn 12s
Overall bit rate mode : Constant
Overall bit rate : 128 Kbps
Album : Neznámé album (14.12.2010 19:02:58)
Album/Performer : Maat
Track name : Tak jak jsme chtìli
Track name/Position : 1
Performer : Maat
Genre : Other

Audio
Format : MPEG Audio
Format version : Version 1
Format profile : Layer 3
Mode : Joint stereo
Mode extension : MS Stereo
Duration : 4mn 13s
Bit rate mode : Constant
Bit rate : 128 Kbps
Channel(s) : 2 channels
Sampling rate : 44.1 KHz
Compression mode : Lossy
Stream size : 3.86 MiB (100%)
tracklist
01 Tak jak jsme chteli
02 Falesna hrdost
03 Nemuzu jinak
04 Nech nas zit
05 Hluboko v srdci
06 Ber co je ti dano
07 Mas na to
08 Hamouni
09 Kdyz spis
10 Nikdy vic
11 Proc bych mel
12 Na chvili pryc
13 Vsechno jak ma byt
14 V kazdym z nas je kus zla
15 Ver nam
16 Je nas vic
17 Posledni sance
18 Na vrchol
download

Kód: Vybrat vše

http://www.uloz.to/x9jcLjPK/maat-all-in-2010-rar
muj upload
Obrázek

Kód: Vybrat vše

http://datoid.cz/?p=143827  
warup
Navigátor
Navigátor
Příspěvky: 1346
Registrován: 05 zář 2014 21:01
Dal poděkování: 2 poděkování
Dostal poděkování: 1 poděkování

MAAT

Příspěvek od warup » 24 bře 2015 08:50

MAAT - Ze tmy (2013)

Obrázek

info

Kód: Vybrat vše

http://www.hiphopstage.cz/album-previews/exkluzivne-maat-odhaluji-cover-noveho-alba-ze-tmy-a-oznamuji-spusteni-predprodeje/
MAAT pár týdnů před vydáním alba Ze tmy pouští ven podobu coveru a zároveň oznamují, že předobjednávky alba jsou spuštěny! Kompletní informace, včetně coveru alba Ze Tmy naleznete v článku .Je to už 14 dní, kdy MAAT nechali vyplout špičku ledovce v podobě prvního videosinglu, který se jmenuje "Ze tmy". Singl je ze stejnojmenného alba Ze tmy, které oficiálně vychází již 12. září 2013, takže co nevidět. Datum má speciální symboliku, protože to bude přesně 6 let, kdy MAAT vydali svoje debutové album "Kandidáti Existence", na kterém se objevil i James Cole nebo Hugo Toxxx.

Na novém studiovém albu se objeví hosté jako je zpěvák a rapper Ben Cristovao, zpěvačka Livie Kuchařová, bubeník a zpěvák Henny ze skupiny Criminal Collection anebo kytarista Petr Lebeda ze skupiny Rybičky 48. Hudební produkci celého alba má na starosti zkušený Fosco Alma a Emeres. Nesmíme zapomenout, že na albu se objeví také produkce od DJ Wiche!

O grafiku coveru alba se postaral, jak už je zvykem Lukáš "Lucas" Jirkovský. A MAAT sami říkají: "Dnes jsme se rozhodli zveřejnit přední cover alba, který vystihuje celý koncept alba. Zatim necháme fanoušky přemýšlet a v nějaké z příštích tiskových zpráv sami vysvětlíme co znamená."

Mezi další aktuální informace patří, že dnešním dnem počínaje je také spuštěn předprodej nového alba na adrese predprodej.pvplabel.com/zetmy a to za speciální cenu 250 Kč! Navíc poštovné a balné je ZDARMA! Předobjednávky budou odeslány 11. září, tak aby fanouškům přišli přesně v den vydání, tj. 12. září. Normální prodejní cena alba bude od 12. září je 300 Kč a bude k prodeji na PVP Label Shopu na adrese shop.pvplabel.com.
tracklist
01. Intro
02. Sám proti sobě (ft. Klára Střihavková)
03. Pod hladinou (ft. Ben Cristovao, Emeres)
04. Ztracený číslo (ft. Emeres)
05. Zpět (skit 1)
06. Stará kapitola
07. Já a ty (ft. DJ Wich)
08. Mozková příhoda
09. Architekt
10. Probuzení (skit 2)
11. Těžko se odchází
12. Ze tmy (ft. Henny)
13. Než zhasnou světla (ft. Livie Kuchařová)
14. Bez nás
15. Outro
kvalita
General
Complete name : E:\up\MAAT - Ze tmy (2013)\01. Intro.mp3
Format : MPEG Audio
File size : 2.78 MiB
Duration : 1mn 12s
Overall bit rate mode : Variable
Overall bit rate : 320 Kbps
Encoded date : UTC 2013-09- 9 22:46:32
Writing library : LAME3.98.4
major_brand : mp42
minor_version : 0
compatible_brands : isommp42

Audio
Format : MPEG Audio
Format version : Version 1
Format profile : Layer 3
Mode : Joint stereo
Mode extension : MS Stereo
Duration : 1mn 12s
Bit rate mode : Variable
Bit rate : 320 Kbps
Channel(s) : 2 channels
Sampling rate : 44.1 KHz
Compression mode : Lossy
Stream size : 2.78 MiB (100%)
Writing library : LAME3.98.4
download

Kód: Vybrat vše

http://www.uloz.to/x6h4Pdvo/maat-ze-tmy-2013-rar
muj upload
Obrázek

Kód: Vybrat vše

http://datoid.cz/?p=143827  
warup
Navigátor
Navigátor
Příspěvky: 1346
Registrován: 05 zář 2014 21:01
Dal poděkování: 2 poděkování
Dostal poděkování: 1 poděkování

MAAT

Příspěvek od warup » 11 zář 2015 12:39

MAAT - ALL-IN 2010

Obrázek
Obrázek
Obrázek

kvalita

Kód: Vybrat vše

General
Complete name               : E:\mobil\MAAT - ALL-IN 2010\01 Tak jak jsme chteli.mp3
Format                      : MPEG Audio
File size                   : 3.86 MiB
Duration                    : 4mn 12s
Overall bit rate mode       : Constant
Overall bit rate            : 128 Kbps
Album                       : Neznámé album (14.12.2010 19:02:58)
Album/Performer             : Maat
Track name                  : Tak jak jsme chtìli
Track name/Position         : 1
Performer                   : Maat
Genre                       : Other

Audio
Format                      : MPEG Audio
Format version              : Version 1
Format profile              : Layer 3
Mode                        : Joint stereo
Mode extension              : MS Stereo
Duration                    : 4mn 13s
Bit rate mode               : Constant
Bit rate                    : 128 Kbps
Channel(s)                  : 2 channels
Sampling rate               : 44.1 KHz
Compression mode            : Lossy
Stream size                 : 3.86 MiB (100%)

tracklist

Kód: Vybrat vše

01 Tak jak jsme chteli
02 Falesna hrdost
03 Nemuzu jinak
04 Nech nas zit
05 Hluboko v srdci
06 Ber co je ti dano
07 Mas na to
08 Hamouni
09 Kdyz spis
10 Nikdy vic
11 Proc bych mel
12 Na chvili pryc
13 Vsechno jak ma byt
14 V kazdym z nas je kus zla
15 Ver nam
16 Je nas vic
17 Posledni sance
18 Na vrchol
download

Kód: Vybrat vše

http://fastshare.cz/5036663/maat-all-in-2010.rar
Obrázek

Kód: Vybrat vše

http://datoid.cz/?p=143827  
warup
Navigátor
Navigátor
Příspěvky: 1346
Registrován: 05 zář 2014 21:01
Dal poděkování: 2 poděkování
Dostal poděkování: 1 poděkování

MAAT

Příspěvek od warup » 11 zář 2015 13:46

MAAT - Ze tmy (2013)

Obrázek
Obrázek
Obrázek

kvalita

Kód: Vybrat vše

General
Complete name               : E:\mobil\MAAT - Ze tmy (2013)\01. Intro.mp3
Format                      : MPEG Audio
File size                   : 2.78 MiB
Duration                    : 1mn 12s
Overall bit rate mode       : Variable
Overall bit rate            : 320 Kbps
Encoded date                : UTC 2013-09- 9 22:46:32
Writing library             : LAME3.98.4
major_brand                 : mp42
minor_version               : 0
compatible_brands           : isommp42

Audio
Format                      : MPEG Audio
Format version              : Version 1
Format profile              : Layer 3
Mode                        : Joint stereo
Mode extension              : MS Stereo
Duration                    : 1mn 12s
Bit rate mode               : Variable
Bit rate                    : 320 Kbps
Channel(s)                  : 2 channels
Sampling rate               : 44.1 KHz
Compression mode            : Lossy
Stream size                 : 2.78 MiB (100%)
Writing library             : LAME3.98.4
tracklist

Kód: Vybrat vše

01. Intro
02. Sám proti sobě (ft. Klára Střihavková)
03. Pod hladinou (ft. Ben Cristovao, Emeres)
04. Ztracený číslo (ft. Emeres)
05. Zpět (skit 1)
06. Stará kapitola
07. Já a ty (ft. DJ Wich)
08. Mozková příhoda
09. Architekt
10. Probuzení (skit 2)
11. Těžko se odchází
12. Ze tmy (ft. Henny)
13. Než zhasnou světla (ft. Livie Kuchařová)
14. Bez nás
15. Outro
download

Kód: Vybrat vše

http://fastshare.cz/5038974/maat-ze-tmy-2013-.rar
Obrázek

Kód: Vybrat vše

http://datoid.cz/?p=143827  
Odpovědět

Zpět na „Hip-Hop“