Lóve (2011)

Česká a slovenská produkce

Moderátor: KlopuX

Odpovědět
Uživatelský avatar
ShenkI
Provider Bronze
Provider Bronze
Příspěvky: 177
Registrován: 31 bře 2007 20:10
Dostal poděkování: 30 poděkování
Kontaktovat uživatele:

Lóve (2011)

Příspěvek od ShenkI » 03 led 2012 19:08

Obrázek

Lóve.2011.DVDSCR.XviD.Sk

Kód: Vybrat vše

Format                                   : AVI 
Format/Info                              : Audio Video Interleave 
File size                                : 350 MiB 
Duration                                 : 1h 28mn 
Overall bit rate                         : 555 Kbps 
Writing application                      : VirtualDubMod 1.5.4.1 (build 2178/release) 
Writing library                          : VirtualDubMod build 2178/release 

Video 
ID                                       : 0 
Format                                   : MPEG-4 Visual 
Format profile                           : Advanced Simple@L5 
Format settings, BVOP                    : 1 
Format settings, QPel                    : No 
Format settings, GMC                     : No warppoints 
Format settings, Matrix                  : Custom 
Codec ID                                 : XVID 
Codec ID/Hint                            : XviD 
Duration                                 : 1h 28mn 
Bit rate                                 : 420 Kbps 
Width                                    : 720 pixels 
Height                                   : 416 pixels 
Display aspect ratio                     : 16:9 
Frame rate                               : 25.000 fps 
Color space                              : YUV 
Chroma subsampling                       : 4:2:0 
Bit depth                                : 8 bits 
Scan type                                : Progressive 
Compression mode                         : Lossy 
Bits/(Pixel*Frame)                       : 0.056 
Stream size                              : 264 MiB (76%) 
Writing library                          : XviD 64 

Audio 
ID                                       : 1 
Format                                   : MPEG Audio 
Format version                           : Version 1 
Format profile                           : Layer 3 
Mode                                     : Joint stereo 
Mode extension                           : MS Stereo 
Codec ID                                 : 55 
Codec ID/Hint                            : MP3 
Duration                                 : 1h 28mn 
Bit rate mode                            : Constant 
Bit rate                                 : 128 Kbps 
Channel(s)                               : 2 channels 
Sampling rate                            : 48.0 KHz 
Compression mode                         : Lossy 
Stream size                              : 80.6 MiB (23%) 
Alignment                                : Aligned on interleaves 
Interleave, duration                     : 80 ms (2.00 video frames) 
Interleave, preload duration             : 504 ms 
Writing library                          : LAME3.98r 
Encoding settings                        : -m j -V 4 -q 2 -lowpass 17 -b 128

Kód: Vybrat vše

http://czshare.com/2438835/W_49/Love_2011(sk_dab).avi
Uživatelský avatar
keragub
Pozorovatel
Pozorovatel
Příspěvky: 37
Registrován: 13 kvě 2009 21:16
Dostal poděkování: 7 poděkování

Lóve (2011)

Příspěvek od keragub » 12 led 2012 14:48

Love / Lóve (2011)
Love.2011.DVDscr.XviD.Sk
!Festival Screener!

Obrázek

ČSFD.CZ 70%

Kód: Vybrat vše

http://www.csfd.cz/film/291482-love/
Drama / Romantický / Thriller

Slovensko, 2011, 90 min
Režie: Jakub Kroner
Hudba: Lukáš Kobela
Hrají: Michal Nemtuda, Kristína Svarinská, Jakub Gogál, Dušan Cinkota, Tina, Samuel Spišák, Zuzana Porubjaková, Roman Luknár, Ľuboš Kostelný, Viktor Horján, Vlado Hajdu

Když se mluví o love, nemusí jít nutně o lásku, může jít i o peníze. A o obojí jde také v novém milostném dramatu ze současné Bratislavy. Slovensko-český koprodukční film Love mladého talentovaného režiséra Jakuba Kronera se stal během pár týdnů největším diváckým hitem ve slovenských kinech za posledních několik let.
Hlavní hrdina Maťo (Michal Nemtuda) bydlí společně s kamarádem Tomášem (Jakub Gogál) na sídlišti ve slovenské metropoli a nežijí si vůbec špatně. Dennodenně se však pohybují za hranicí zákona, protože se živí krádežemi aut. Jednoho večera vstoupí do Maťova života studentka Veronika (Kristína Svarinská), do níž se zamiluje, ale v lecčems jí neříká pravdu. A ta se nakonec za velmi dramatických okolností provalí. Jednu z rolí v tomto bezpochyby autentickém filmu ztvárnila i zpěvačka Tina, v Čechách známá jako moderátorka, dále hrají Ľuboš Kostelný nebo Roman Luknár.


Obrázek

Kód: Vybrat vše

Format                         : AVI
Format/Info                    : Audio Video Interleave
File size                      : 350 MiB
Duration                       : 1h 28mn
Overall bit rate               : 555 Kbps
Writing application            : VirtualDubMod 1.5.4.1 (build 2178/release)
Writing library                : VirtualDubMod build 2178/release

Video
ID                             : 0
Format                         : MPEG-4 Visual
Format profile                 : Advanced Simple@L5
Format settings, BVOP          : 1
Format settings, QPel          : No
Format settings, GMC           : No warppoints
Format settings, Matrix        : Custom
Codec ID                       : XVID
Codec ID/Hint                  : XviD
Duration                       : 1h 28mn
Bit rate                       : 420 Kbps
Width                          : 720 pixels
Height                         : 416 pixels
Display aspect ratio           : 16:9
Frame rate                     : 25.000 fps
Color space                    : YUV
Chroma subsampling             : 4:2:0
Bit depth                      : 8 bits
Scan type                      : Progressive
Compression mode               : Lossy
Bits/(Pixel*Frame)             : 0.056
Stream size                    : 264 MiB (76%)
Writing library                : XviD 64

Audio
ID                             : 1
Format                         : MPEG Audio
Format version                 : Version 1
Format profile                 : Layer 3
Mode                           : Joint stereo
Mode extension                 : MS Stereo
Codec ID                       : 55
Codec ID/Hint                  : MP3
Duration                       : 1h 28mn
Bit rate mode                  : Constant
Bit rate                       : 128 Kbps
Channel(s)                     : 2 channels
Sampling rate                  : 48.0 KHz
Compression mode               : Lossy
Stream size                    : 80.6 MiB (23%)
Alignment                      : Aligned on interleaves
Interleave, duration           : 80 ms (2.00 video frames)
Interleave, preload duration   : 504 ms
Writing library                : LAME3.98r
Encoding settings              : -m j -V 4 -q 2 -lowpass 17 -b 128

SHARE-RAPID

Kód: Vybrat vše

http://share-rapid.com/stahuj/3137813/love-2011-dvdscr-xvid-sk.avi
Odpovědět

Zpět na „CZ/SK Tvorba“