Právě je 18 pro 2017 11:59

Všechny časy jsou v UTC + 1 hodina



Ledové ostří 4: Oheň a led / Cutting Edge: Fire & Ice (2010)

[ Moderátorský panel ]



Odeslat nové téma Odpovědět na téma  [ Příspěvek: 1 ] 
Autor Zpráva
 Předmět příspěvku: Ledové ostří 4: Oheň a led / Cutting Edge: Fire & Ice (2010)
PříspěvekNapsal: 11 čer 2012 18:06 
Technik
Uživatelský avatar

Registrován: 15 úno 2009 19:45
Příspěvky: 496
Poděkoval: 10x
Poděkováno: 35x
W4A Money: 33800
Offline
Ledové ostři 4 - Oheň a led (2010) TV RIP SK
Obrázek


Obrázek

http://www.csfd.cz/film/279408-ledove-ostri-4-ohen-a-led/

Obrázek

Drama / Romantický
USA, 2010, 90 min


Režie: Stephen Herek
Hrají: Brendan Fehr, Anthony Lemke, Francia Raisa, Vlasta Vrana, Stephen Amell
___________________________________________________________________________________________________
Citace:
Ve čtvrtém pokračování Ledového ostří se opět setkáme s Alejandrou "Alex" Delgado, která 2 roky po triumfu na mistrovství světa ztratila partnera. Ta nyní pořádá lekce krasobruslení pro děti. Její budoucí partner James "Bad boy" McKinsey byl kvůli násilí vyřazen z rychlobruslařského družstva USA. Oba v problémech, oba na jednom ledě, mistrovství za tři měsíce a trenér, co neumí anglicky.



Obrázek

Citace:
Format : DivX
Format/Info : Hack of AVI
File size : 865 MiB
Duration : 1h 22mn
Overall bit rate : 1 469 Kbps

Video
ID : 0
Format : MPEG-4 Visual
Format settings, BVOP : 1
Format settings, QPel : No
Format settings, GMC : No warppoints
Format settings, Matrix : Default (H.263)
Muxing mode : Packed bitstream
Codec ID : DX50
Codec ID/Hint : DivX 5
Duration : 1h 22mn
Bit rate : 1 300 Kbps
Width : 624 pixels
Height : 352 pixels
Display aspect ratio : 16:9
Frame rate : 25.000 fps
Color space : YUV
Chroma subsampling : 4:2:0
Bit depth : 8 bits
Scan type : Progressive
Compression mode : Lossy
Bits/(Pixel*Frame) : 0.237
Stream size : 765 MiB (88%)
Writing library : DivX 2682

Audio
ID : 1
Format : MPEG Audio
Format version : Version 1
Format profile : Layer 3
Mode : Joint stereo
Mode extension : MS Stereo
Codec ID : 55
Codec ID/Hint : MP3
Duration : 1h 22mn
Bit rate mode : Constant
Bit rate : 160 Kbps
Channel(s) : 2 channels
Sampling rate : 44.1 KHz
Compression mode : Lossy
Stream size : 94.2 MiB (11%)
Alignment : Split accross interleaves
Interleave, duration : 40 ms (1.00 video frame)
Interleave, preload duration : 500 ms
Title : Audio



Obrázek

Obrázek

Pro zobrazení linků musíte být přihlášen!
Pokud ještě nemáte zaregistrovaný účet, můžete se zaregistrovat.

_________________
!!!!!-Mam pomalý upload, tak prosim trochu úcty-!!!!!


Nahoru
 Profil  
Zobrazit příspěvky za předchozí:  Seřadit podle  
Odpovědět na téma  [ Příspěvek: 1 ] 

Všechny časy jsou v UTC + 1 hodina


Kdo je online

Uživatelé procházející toto fórum: Bing [Bot] a 1 návštěvník



Nemůžete zakládat nová témata v tomto fóru
Nemůžete odpovídat v tomto fóru
Nemůžete upravovat své příspěvky v tomto fóru
Nemůžete mazat své příspěvky v tomto fóru
Nemůžete přikládat soubory v tomto fóru

Přejít na:  

Time : 0.190s | 18 Queries | GZIP : Off

Filmy ke stažení zdarma | Cheaty | Pocket PC | Android | Windows Phone 7 | iGO 8 | Apple iPhone | Symbian Smartphone | ROM | Windows Mobile | BlackBerry | Palm | Java | Warez mobile forum