Ledové ostří 4: Oheň a led / Cutting Edge: Fire & Ice (2010)

Česká a slovenská produkce

Moderátor: KlopuX

Odpovědět
Uživatelský avatar
MrKiller
Technik
Technik
Příspěvky: 494
Registrován: 15 úno 2009 19:45
Dal poděkování: 1 poděkování
Dostal poděkování: 7 poděkování
Kontaktovat uživatele:

Ledové ostří 4: Oheň a led / Cutting Edge: Fire & Ice (2010)

Příspěvek od MrKiller » 11 čer 2012 19:06

Ledové ostři 4 - Oheň a led (2010) TV RIP SK
Obrázek


Obrázek

http://www.csfd.cz/film/279408-ledove-o ... hen-a-led/

Obrázek

Drama / Romantický
USA, 2010, 90 min


Režie: Stephen Herek
Hrají: Brendan Fehr, Anthony Lemke, Francia Raisa, Vlasta Vrana, Stephen Amell
___________________________________________________________________________________________________
Ve čtvrtém pokračování Ledového ostří se opět setkáme s Alejandrou "Alex" Delgado, která 2 roky po triumfu na mistrovství světa ztratila partnera. Ta nyní pořádá lekce krasobruslení pro děti. Její budoucí partner James "Bad boy" McKinsey byl kvůli násilí vyřazen z rychlobruslařského družstva USA. Oba v problémech, oba na jednom ledě, mistrovství za tři měsíce a trenér, co neumí anglicky.

Obrázek
Format : DivX
Format/Info : Hack of AVI
File size : 865 MiB
Duration : 1h 22mn
Overall bit rate : 1 469 Kbps

Video
ID : 0
Format : MPEG-4 Visual
Format settings, BVOP : 1
Format settings, QPel : No
Format settings, GMC : No warppoints
Format settings, Matrix : Default (H.263)
Muxing mode : Packed bitstream
Codec ID : DX50
Codec ID/Hint : DivX 5
Duration : 1h 22mn
Bit rate : 1 300 Kbps
Width : 624 pixels
Height : 352 pixels
Display aspect ratio : 16:9
Frame rate : 25.000 fps
Color space : YUV
Chroma subsampling : 4:2:0
Bit depth : 8 bits
Scan type : Progressive
Compression mode : Lossy
Bits/(Pixel*Frame) : 0.237
Stream size : 765 MiB (88%)
Writing library : DivX 2682

Audio
ID : 1
Format : MPEG Audio
Format version : Version 1
Format profile : Layer 3
Mode : Joint stereo
Mode extension : MS Stereo
Codec ID : 55
Codec ID/Hint : MP3
Duration : 1h 22mn
Bit rate mode : Constant
Bit rate : 160 Kbps
Channel(s) : 2 channels
Sampling rate : 44.1 KHz
Compression mode : Lossy
Stream size : 94.2 MiB (11%)
Alignment : Split accross interleaves
Interleave, duration : 40 ms (1.00 video frame)
Interleave, preload duration : 500 ms
Title : Audio

Obrázek

Obrázek

Kód: Vybrat vše

http://share-rapid.com/stahuj/3705115/ledove-ostri-4-ohen-a-led-2010-skdab-dp.avi
!!!!!-Mam pomalý upload, tak prosim trochu úcty-!!!!!
Odpovědět

Zpět na „CZ/SK Tvorba“