Grandhotel

Česká a slovenská produkce

Moderátor: KlopuX

Odpovědět
Uživatelský avatar
SpitAngeR
Pozorovatel
Pozorovatel
Příspěvky: 69
Registrován: 28 říj 2017 09:15

Grandhotel (2006)

Příspěvek od SpitAngeR » 14 dub 2018 10:15

Grandhotel (2006)
Obrázek

Kód: Vybrat vše

https://www.csfd.cz/film/220057-grandhotel/
https://www.fdb.cz/film/grandhotel/39633
https://www.imdb.com/title/tt0494231/
Grandhotel.2006.DVDRip.XviD.AC3.CZ-BoLeRO

Kód: Vybrat vše

General
Complete name                  : D:\RLS\Grandhotel.2006.DVDRip.XviD.AC3.CZ-BoLeRO\jested-blr.avi
Format                         : AVI
Format/Info                    : Audio Video Interleave
File size                      : 1.59 GiB
Duration                       : 1 h 32 min
Overall bit rate               : 2 455 kb/s
Writing application            : VirtualDubMod 1.5.10.2 (build 2542/release)
Writing library                : VirtualDubMod build 2542/release

Video
ID                             : 0
Format                         : MPEG-4 Visual
Format profile                 : Advanced Simple@L5
Format settings                : Custom Matrix
Format settings, BVOP          : No
Format settings, QPel          : No
Format settings, GMC           : No warppoints
Format settings, Matrix        : Custom
Codec ID                       : XVID
Codec ID/Hint                  : XviD
Duration                       : 1 h 32 min
Bit rate                       : 2 000 kb/s
Width                          : 720 pixels
Height                         : 320 pixels
Display aspect ratio           : 2.25:1
Frame rate                     : 25.000 FPS
Color space                    : YUV
Chroma subsampling             : 4:2:0
Bit depth                      : 8 bits
Scan type                      : Progressive
Compression mode               : Lossy
Bits/(Pixel*Frame)             : 0.347
Stream size                    : 1.30 GiB (81%)
Writing library                : XviD 1.2.1 (UTC 2008-12-04)

Audio
ID                             : 1
Format                         : AC-3
Format/Info                    : Audio Coding 3
Codec ID                       : 2000
Duration                       : 1 h 32 min
Bit rate mode                  : Constant
Bit rate                       : 448 kb/s
Channel(s)                     : 6 channels
Channel positions              : Front: L C R, Side: L R, LFE
Sampling rate                  : 48.0 kHz
Frame rate                     : 31.250 FPS (1536 SPF)
Bit depth                      : 16 bits
Compression mode               : Lossy
Stream size                    : 297 MiB (18%)
Alignment                      : Split accross interleaves
Interleave, duration           : 96  ms (2.40 video frames)
Interleave, preload duration   : 96  ms
Language                       : Czech
Service kind                   : Complete Main

Kód: Vybrat vše

Zdroj: Full DVD
Jazyk: Český DD5.1
Titulky: ne
Obrázek

Kód: Vybrat vše

http://fastshare.cz/9074107/grandhotel.2006.dvdrip.xvid.ac3.cz-bolero.avi
Obrázek

Kód: Vybrat vše

https://uloz.to/!xRAw9qz0riKo/grandhotel-2006-dvdrip-xvid-ac3-cz-bolero-avi
Odpovědět

Zpět na „CZ/SK Tvorba“