Peaky Blinders S01 / 720p / EN / 2013

Originální dabované HD seriály

Moderátor: KlopuX

Odpovědět
Uživatelský avatar
romzes
Provider Bronze
Provider Bronze
Příspěvky: 429
Registrován: 03 čer 2007 12:17
Bydliště: Praha 8
Dostal poděkování: 27 poděkování
Kontaktovat uživatele:

Peaky Blinders S01 / 720p / EN / 2013

Příspěvek od romzes » 20 úno 2014 07:40

Peaky Blinders S01 / 720p / EN / Bluray / AC3 /CZ sub
Release : peaky.blinders.s01e.720p.bluray.x264-7sins_ac3.mkv

Obrázek

Obrázek
Obrázek

Kód: Vybrat vše

7s-peaky-blinders-s01-720p_ac3.mkv
   General
      Unique ID : 185094642640460585852258840219167351411 (0x8B3FEE7584C3F176B81095D3757DE273)
      Complete name : 7s-peaky-blinders-s01-720p_ac3.mkv
      Format : Matroska
      Format version : Version 2
      File size : 2.30 GiB
      Duration : 56mn 59s
      Overall bit rate : 5 782 Kbps
      Encoded date : UTC 2014-02-19 16:13:45
      Writing application : mkvmerge v4.4.0 ('Die Wiederkehr') built on Oct 31 2010 21:52:48
      Writing library : libebml v1.0.0 + libmatroska v1.0.0
   Video #1
      ID : 1
      Format : AVC
      Format/Info : Advanced Video Codec
      Format profile : High@L4.1
      Format settings, CABAC : Yes
      Format settings, ReFrames : 5 frames
      Codec ID : V_MPEG4/ISO/AVC
      Duration : 56mn 59s
      Bit rate : 5 140 Kbps
      Width : 1 280 pixels
      Height : 688 pixels
      Display aspect ratio : 1.85:1
      Frame rate mode : Constant
      Frame rate : 25.000 fps
      Color space : YUV
      Chroma subsampling : 4:2:0
      Bit depth : 8 bits
      Scan type : Progressive
      Bits/(Pixel*Frame) : 0.233
      Stream size : 2.00 GiB (87%)
      Writing library : x264 core 135 r2345 f0c1c53
      Encoding settings : cabac=1 / ref=5 / deblock=1:0:0 / analyse=0x3:0x133 / me=umh / subme=7 / psy=1 / psy_rd=1.00:0.00 / mixed_ref=1 / me_range=16 / chroma_me=1 / trellis=1 / 8x8dct=1 / cqm=0 / deadzone=21,11 / fast_pskip=0 / chroma_qp_offset=-2 / threads=12 / lookahead_threads=2 / sliced_threads=0 / nr=0 / decimate=1 / interlaced=0 / bluray_compat=0 / constrained_intra=0 / bframes=3 / b_pyramid=2 / b_adapt=2 / b_bias=0 / direct=3 / weightb=1 / open_gop=0 / weightp=2 / keyint=250 / keyint_min=25 / scenecut=40 / intra_refresh=0 / rc_lookahead=50 / rc=2pass / mbtree=1 / bitrate=5140 / ratetol=1.0 / qcomp=0.60 / qpmin=0 / qpmax=69 / qpstep=4 / cplxblur=20.0 / qblur=0.5 / ip_ratio=1.40 / aq=1:1.00
      Language : English
      Default : Yes
      Forced : No
   Audio #2
      ID : 2
      Format : AC-3
      Format/Info : Audio Coding 3
      Mode extension : CM (complete main)
      Format settings, Endianness : Big
      Codec ID : A_AC3
      Duration : 56mn 59s
      Bit rate mode : Constant
      Bit rate : 640 Kbps
      Channel count : 2 channels
      Channel positions : Front: L R
      Sampling rate : 48.0 KHz
      Bit depth : 16 bits
      Compression mode : Lossy
      Stream size : 261 MiB (11%)
      Default : Yes
      Forced : Yes
   Text #3
      ID : 3
      Format : UTF-8
      Codec ID : S_TEXT/UTF8
      Codec ID/Info : UTF-8 Plain Text
      Language : Czech
      Default : Yes
      Forced : Yes
.:: SERIE 01 ::.

Episode #1.1

Kód: Vybrat vše

http://www.fastshare.cz/2734773/peaky.blinders.s01e01.720p.bluray.x264-7sins.part1.rar
http://www.fastshare.cz/2734802/peaky.blinders.s01e01.720p.bluray.x264-7sins.part2.ra

https://webshare.cz/file/1aP5Qs4324/peaky-blinders-s01e01-720p-bluray-x264-7sins-part1-rar
https://webshare.cz/file/6tI4P36xf7/peaky-blinders-s01e01-720p-bluray-x264-7sins-part2-ra
Episode #1.2

Kód: Vybrat vše

http://www.fastshare.cz/2734947/peaky.blinders.s01e02.720p.bluray.x264-7sins.part1.rar
http://www.fastshare.cz/2734995/peaky.blinders.s01e02.720p.bluray.x264-7sins.part2.ra

https://webshare.cz/file/6UJ3uc5a84/peaky-blinders-s01e02-720p-bluray-x264-7sins-part1-rar
https://webshare.cz/file/28i1hQ4r51/peaky-blinders-s01e02-720p-bluray-x264-7sins-part2-rar
Episode #1.3

Kód: Vybrat vše

http://www.fastshare.cz/2735140/peaky.blinders.s01e03.720p.bluray.x264-7sins.part1.rar
http://www.fastshare.cz/2735147/peaky.blinders.s01e03.720p.bluray.x264-7sins.part2.rar

https://webshare.cz/file/kg7N15w20T/peaky-blinders-s01e03-720p-bluray-x264-7sins-part1-rar
https://webshare.cz/file/4v75nF39h5/peaky-blinders-s01e03-720p-bluray-x264-7sins-part2-rar
Episode #1.4

Kód: Vybrat vše

http://www.fastshare.cz/2735140/peaky.blinders.s01e03.720p.bluray.x264-7sins.part1.rar
http://www.fastshare.cz/2735147/peaky.blinders.s01e03.720p.bluray.x264-7sins.part2.rar

https://webshare.cz/file/6ln3Qw3y75/peaky-blinders-s01e04-720p-bluray-x264-7sins-part1-rar
https://webshare.cz/file/jy4tI1G93r/peaky-blinders-s01e04-720p-bluray-x264-7sins-part2-rar
Episode #1.5

Kód: Vybrat vše

http://www.fastshare.cz/2735464/peaky.blinders.s01e05.720p.bluray.x264-7sins.part1.rar
http://www.fastshare.cz/2735507/peaky.blinders.s01e05.720p.bluray.x264-7sins.part2.ra

https://webshare.cz/file/5w27eZ7kc4/peaky-blinders-s01e05-720p-bluray-x264-7sins-part1-rar
https://webshare.cz/file/04p14yQ6qH/peaky-blinders-s01e05-720p-bluray-x264-7sins-part2-rar
Episode #1.6

Kód: Vybrat vše

http://www.fastshare.cz/2735608/peaky.blinders.s01e06.720p.bluray.x264-7sins.part1.rar
http://www.fastshare.cz/2735609/peaky.blinders.s01e06.720p.bluray.x264-7sins.part2.rar

https://webshare.cz/file/oPHq1sn396/peaky-blinders-s01e06-720p-bluray-x264-7sins-part1-rar
https://webshare.cz/file/6mK6w91Zj2/peaky-blinders-s01e06-720p-bluray-x264-7sins-part2-rar
*** Bez hesla
*** Titulky v obraze
*** Vložen záznam pro opravu dat
Intel Core i7 920 2.66 @ 3.8
Gigabyte GA-EX58-UD3R
Sapphire HD6950 2GB @ HD6970
4x2 GB DDR3-1333 Kingston, Micron
HDD 3,6 TB
AMD Eyefinity Acer 3 x 22"


Obrázek

Obrázek
Odpovědět

Zpět na „Seriály“