Právě je 21 čer 2018 18:51

Všechny časy jsou v UTC + 1 hodina



Želvy Ninja / Teenage Mutant Ninja Turtles (1987)

[ Moderátorský panel ]



Odeslat nové téma Odpovědět na téma  [ Příspěvek: 1 ] 
Autor Zpráva
 Předmět příspěvku: Želvy Ninja / Teenage Mutant Ninja Turtles (1987)
PříspěvekNapsal: 09 lis 2017 14:32 
Navigátor

Registrován: 05 zář 2014 20:01
Příspěvky: 1282
Poděkoval: 4x
Poděkováno: 5x
W4A Money: 50700
Offline
Obrázek
Obrázek
Obrázek


info

Pro zobrazení linků musíte být přihlášen!
Pokud ještě nemáte zaregistrovaný účet, můžete se zaregistrovat.


Citace:
Hlboko v útrobách newyorskej kanalizácie žijú štyri zmutované korytnačky, ktoré vychoval a dokonale vo východných bojových umeniach vycvičil legendárny bojovník Hamato Yoshi, po kontakte so záhadným mutagénom (známym ako Ooze) a potkanom v kanalizácii teraz sám vyzerajúci ako nadrozmerný potkan, ktorého jeho opancierovaní zverenci láskyplne volajú majster Splinter (Trieska). Oni jemu zase vďačia za krásne mená, ktoré im dal po svojich obľúbených maliarskych majstroch - Leonardo, Donatello, Raphael a Michelangelo... Jediným skutočným kontaktom so životom „na povrchu" tejto zvláštnej pätice bola istý čas len pôvabná červenovlasá televízna reportérka April O'Neilová, neskôr sa k nej pridala aj jej okuliarnatá kolegyňa Irma Langinsteinová, ktorá sa dokáže nadchnúť pre každého, kto nosí nohavice (výnimkou nie je dokonca ani Shredder) a šarmantný pomstiteľ Casey Jones, ku ktorého výzbroji neodmysliteľne patria hokejová maska, šoférske rukavice a golfový vak!
Okrem toho, že štvoricu hrdinských korytnačích bratov spája rovnaká oddanosť pri ochrane milovaného „Veľkého jablka", spoločný bojový pokrik „Cowabunga!", a tiež obrovská, občas temer až nekontrolovateľná láska k pizze, ktorú by najradšej jedli na raňajky, obed, večeru i medzi nimi, sa od seba predsa len trochu líšia. Kým Leonardo je rodený vodca, Donatello je mysliteľ a stratég, Raphael zase vyslovene akčný typ, ktorý najprv koná a až potom sa pýta, no a Michelangelo nepolepšiteľný vtipkár. Nuž a jeden od druhého sa odlišujú i farbou čeleniek (hoci v originálnom komikse mali všetci štyria úplne rovnaké červené čelenky), iným odtieňom napohľad identicky vyzerajúcej zelenej pokožky a samozrejme používanými zbraňami. Leonardo nosí modrú čelenku a bojuje dvoma katanami (dlhými japonskými mečmi), Donatello má fialovú čelenku a bráni sa tzv. Bō (dlhou palicoui), Raphael s červenou čelenkou majstrovsky ovláda svoje Sai (ostré vidlicovité zbrane pripomínajúce malý trojzubec), no a oranžovou čelenkou ozdobený Michelangelo je zase nekorunovaným kráľom v bojoch s nunčakmi, ku ktorým neskôr pridá rybárske háky!
Zarytými nepriateľmi ninja korytnačiek sú bývalý Yoshiho žiak Oroku Saki, dnes známejší pod prezývkou Shredder (Trhač), a mimozemšťan z Dimenzie X menom Krang. Tým výdatne pomáhajú okrem robotických verzií vojakov klanu Foot, ku ktorému kedysi patrili aj Yoshi a Saki, aj Bebop a Rocksteady – dvaja nie veľmi bystrí pouliční bitkári, ktorých Shredder nechal zmutoval na nosorožca (Rocksteady) a diviaka (Bebop).
Zas a znova sa však na scéne objavujú i ďalší, noví protivníci – zvyčajne takisto mutanti. Ako napríklad geniálny vedec a vynálezca potkany chytajúceho robota Baxter Stockman, ktorého Krang zmenil na mušieho mutanta; v kanalizácii žijúci človek prezývaný Potkaní kráľ, ktorý dokáže s potkanmi nielen hovoriť, ale ich aj bez problémov ovládať, ako sa mu zachce; zmutovaný aligátor z Floridy menom Leatherhead (Kožená hlava); Slash – zmutovaná kajmanka dravá, ktorá je domácim miláčik Bebopa a Rocksteadyho; no a napokon Tempestra – postava z videohry, ktorá ožila v reálnom svete a plánuje ho zničiť!(TV Dajto)


kvalita

Citace:
General
Complete name : E:\vypalit\VIDEO_TS\VTS_02_1.VOB
Format : MPEG-PS
File size : 1 024 MiB
Duration : 19mn 33s
Overall bit rate mode : Variable
Overall bit rate : 7 317 Kbps

Video
ID : 224 (0xE0)
Format : MPEG Video
Format version : Version 2
Format profile : Main@Main
Format settings, BVOP : Yes
Format settings, Matrix : Custom
Format settings, GOP : M=3, N=12
Format settings, picture st : Frame
Duration : 19mn 33s
Bit rate mode : Variable
Bit rate : 6 500 Kbps
Maximum bit rate : 9 800 Kbps
Width : 720 pixels
Height : 576 pixels
Display aspect ratio : 4:3
Frame rate : 25.000 fps
Standard : PAL
Color space : YUV
Chroma subsampling : 4:2:0
Bit depth : 8 bits
Scan type : Interlaced
Scan order : Top Field First
Compression mode : Lossy
Bits/(Pixel*Frame) : 0.627
Time code of first frame : 00:00:00:00
Time code source : Group of pictures header
GOP, Open/Closed : Closed
Stream size : 909 MiB (89%)

Audio #1
ID : 189 (0xBD)-128 (0x80)
Format : AC-3
Format/Info : Audio Coding 3
Mode extension : CM (complete main)
Format settings, Endianness : Big
Muxing mode : DVD-Video
Duration : 19mn 33s
Bit rate mode : Constant
Bit rate : 224 Kbps
Channel(s) : 2 channels
Channel positions : Front: L R
Sampling rate : 48.0 KHz
Compression mode : Lossy
Stream size : 31.3 MiB (3%)

Audio #2
ID : 189 (0xBD)-129 (0x81)
Format : AC-3
Format/Info : Audio Coding 3
Mode extension : CM (complete main)
Format settings, Endianness : Big
Muxing mode : DVD-Video
Duration : 19mn 33s
Bit rate mode : Constant
Bit rate : 224 Kbps
Channel(s) : 2 channels
Channel positions : Front: L R
Sampling rate : 48.0 KHz
Compression mode : Lossy
Stream size : 31.3 MiB (3%)

Audio #3
ID : 189 (0xBD)-130 (0x82)
Format : AC-3
Format/Info : Audio Coding 3
Mode extension : CM (complete main)
Format settings, Endianness : Big
Muxing mode : DVD-Video
Duration : 19mn 33s
Bit rate mode : Constant
Bit rate : 224 Kbps
Channel(s) : 2 channels
Channel positions : Front: L R
Sampling rate : 48.0 KHz
Compression mode : Lossy
Stream size : 31.3 MiB (3%)

Menu


download

Želvy ninja 6

Pro zobrazení linků musíte být přihlášen!
Pokud ještě nemáte zaregistrovaný účet, můžete se zaregistrovat.

_________________
Obrázek

Pro zobrazení linků musíte být přihlášen!
Pokud ještě nemáte zaregistrovaný účet, můžete se zaregistrovat.


Nahoru
 Profil  
Zobrazit příspěvky za předchozí:  Seřadit podle  
Odpovědět na téma  [ Příspěvek: 1 ] 

Všechny časy jsou v UTC + 1 hodina


Kdo je online

Uživatelé procházející toto fórum: Žádní registrovaní uživatelé a 2 návštevníků



Nemůžete zakládat nová témata v tomto fóru
Nemůžete odpovídat v tomto fóru
Nemůžete upravovat své příspěvky v tomto fóru
Nemůžete mazat své příspěvky v tomto fóru
Nemůžete přikládat soubory v tomto fóru

Přejít na:  

Time : 0.115s | 19 Queries | GZIP : Off

Filmy ke stažení zdarma | Cheaty | Pocket PC | Android | Windows Phone 7 | iGO 8 | Apple iPhone | Symbian Smartphone | ROM | Windows Mobile | BlackBerry | Palm | Java | Warez mobile forum