Pravěk útočí / Primeval (2007)

Originální dvd seriálů

Moderátor: KlopuX

Odpovědět
Uživatelský avatar
martanius
Palubní technik
Palubní technik
Příspěvky: 766
Registrován: 20 kvě 2009 18:46
Dostal poděkování: 24 poděkování

Pravěk útočí / Primeval (2007)

Příspěvek od martanius » 25 kvě 2014 01:35

Osm let uplynulo od tajemného zmizení manželky profesora Nicka Cuttera. Helen Cutter měla provádět výzkum v lesích, který se týkal neznámého obrovského zvířete. Po 8 letech se její manžel dostává na stejné místo za stejným účelem, ale nečekaně objeví kromě obrovského dinosaura také zvláštní anomálie. Ta dovoluje procházet mezi dvěma obdobími v historii země. Mezi přítomností a velmi vzdálenou minulostí, obdobím Křídy. Po tomto obrovském objevu je profesor Cutter a jeho výzkumný tým nucen stát se tajným vyšetřovacím týmem vytvořeným Ministerstvem vnitra. Postupně začnou odkrývat tajemství existence a hlavně vzniku anomálií, které se začnou objevovat velmi často a na velmi zvláštních místech. K tomu všemu se ještě profesoru Cutterovi začíná zjevovat jeho pravděpodobně mrtvá manželka Helen...

Kód: Vybrat vše

http://www.csfd.cz/film/231219-pravek-utoci/
Kvalita

Kód: Vybrat vše

General
Complete name                            : F:\VIDEO_TS\VTS_02_1.VOB
Format                                   : MPEG-PS
File size                                : 1 024 MiB
Duration                                 : 18mn 26s
Overall bit rate mode                    : Variable
Overall bit rate                         : 7 758 Kbps

Video
ID                                       : 224 (0xE0)
Format                                   : MPEG Video
Format version                           : Version 2
Format profile                           : Main@Main
Format settings, BVOP                    : Yes
Format settings, Matrix                  : Custom
Duration                                 : 18mn 26s
Bit rate mode                            : Variable
Bit rate                                 : 7 156 Kbps
Maximum bit rate                         : 9 800 Kbps
Width                                    : 720 pixels
Height                                   : 576 pixels
Display aspect ratio                     : 16:9
Frame rate                               : 25.000 fps
Standard                                 : PAL
Color space                              : YUV
Chroma subsampling                       : 4:2:0
Bit depth                                : 8 bits
Scan type                                : Interlaced
Scan order                               : Top Field First
Compression mode                         : Lossy
Bits/(Pixel*Frame)                       : 0.690
Stream size                              : 944 MiB (92%)

Audio #1
ID                                       : 189 (0xBD)-128 (0x80)
Format                                   : AC-3
Format/Info                              : Audio Coding 3
Mode extension                           : CM (complete main)
Format settings, Endianness              : Big
Muxing mode                              : DVD-Video
Duration                                 : 18mn 26s
Bit rate mode                            : Constant
Bit rate                                 : 224 Kbps
Channel(s)                               : 2 channels
Channel positions                        : Front: L R
Sampling rate                            : 48.0 KHz
Bit depth                                : 16 bits
Compression mode                         : Lossy
Stream size                              : 29.6 MiB (3%)

Audio #2
ID                                       : 189 (0xBD)-129 (0x81)
Format                                   : AC-3
Format/Info                              : Audio Coding 3
Mode extension                           : CM (complete main)
Format settings, Endianness              : Big
Muxing mode                              : DVD-Video
Duration                                 : 18mn 26s
Bit rate mode                            : Constant
Bit rate                                 : 224 Kbps
Channel(s)                               : 2 channels
Channel positions                        : Front: L R
Sampling rate                            : 48.0 KHz
Bit depth                                : 16 bits
Compression mode                         : Lossy
Stream size                              : 29.6 MiB (3%)

Text
ID                                       : 189 (0xBD)-32 (0x20)
Format                                   : RLE
Format/Info                              : Run-length encoding
Muxing mode                              : DVD-Video

Menu

1. Série

DVD 1

Obrázek

Zvuk: 2.0 česky, anglicky
Titulky: česky
Délka: 47 minut
Menu: ANO
Bonusy: NE
DVD5

Download

Kód: Vybrat vše

http://www.sharerapid.cz/soubor/96875/pravekutoci1-dvd-part1_rar 
http://www.sharerapid.cz/soubor/96881/pravekutoci1-dvd-part2_rar 
http://www.sharerapid.cz/soubor/96895/pravekutoci1-dvd-part3_rar 
DVD 2

Obrázek

Zvuk: 2.0 česky, anglicky
Titulky: česky
Délka: 47 minut
Menu: ANO
Bonusy: NE
DVD5

Download

Kód: Vybrat vše

http://www.sharerapid.cz/soubor/96908/pravekutoci2-dvd-part1_rar 
http://www.sharerapid.cz/soubor/96902/pravekutoci2-dvd-part2_rar 
http://www.sharerapid.cz/soubor/96986/pravekutoci2-dvd-part3_rar 
2. Série

DVD 6

Obrázek

Zvuk: 2.0 česky, anglicky
Titulky: česky
Délka: 46 minut
Menu: ANO
Bonusy: NE
DVD5

Download

Kód: Vybrat vše

http://www.sharerapid.cz/soubor/97045/pravekutoci6-dvd-part1_rar 
http://www.sharerapid.cz/soubor/97044/pravekutoci6-dvd-part2_rar 
http://www.sharerapid.cz/soubor/97056/pravekutoci6-dvd-part3_rar 
DVD 7

Obrázek

Zvuk: 2.0 česky, anglicky
Titulky: česky
Délka: 47 minut
Menu: ANO
Bonusy: NE
DVD5

Download

Kód: Vybrat vše

http://www.sharerapid.cz/soubor/97117/pravekutoci7-dvd-part1_rar 
http://www.sharerapid.cz/soubor/97125/pravekutoci7-dvd-part2_rar 
http://www.sharerapid.cz/soubor/97131/pravekutoci7-dvd-part3_rar 
Mám pouze 1. a 2. z 6 DVD první série a 6. a 7. ze 7 DVD druhé série.
Více nemám.
Mé DVD uploady jsou čisté kopie originálů, bez komprese.
warup
Navigátor
Navigátor
Příspěvky: 1285
Registrován: 05 zář 2014 21:01
Dal poděkování: 2 poděkování
Dostal poděkování: 1 poděkování

Pravěk útočí / Primeval (2007)

Příspěvek od warup » 28 úno 2016 15:13

Pravěk utači 2 serie Dvd 1

Obrázek

info

Kód: Vybrat vše

http://www.csfd.cz/film/231219-pravek-utoci/prehled/
Osm let uplynulo od tajemného zmizení manželky profesora Nicka Cuttera. Helen Cutter měla provádět výzkum v lesích, který se týkal neznámého obrovského zvířete. Po 8 letech se její manžel dostává na stejné místo za stejným účelem, ale nečekaně objeví kromě obrovského dinosaura také zvláštní anomálie. Ta dovoluje procházet mezi dvěma obdobími v historii země. Mezi přítomností a velmi vzdálenou minulostí, obdobím Křídy. Po tomto obrovském objevu je profesor Cutter a jeho výzkumný tým nucen stát se tajným vyšetřovacím týmem vytvořeným Ministerstvem vnitra. Postupně začnou odkrývat tajemství existence a hlavně vzniku anomálií, které se začnou objevovat velmi často a na velmi zvláštních místech. K tomu všemu se ještě profesoru Cutterovi začíná zjevovat jeho pravděpodobně mrtvá manželka Helen...(Djkoma)
kvalita

Kód: Vybrat vše

General
Complete name               : C:\Users\Doma\Desktop\GAMES\VIDEO_TS\VIDEO_TS.VOB
Format                      : MPEG-PS
File size                   : 22.8 MiB
Duration                    : 30s 0ms
Overall bit rate            : 6 374 Kbps
Writing library             : encoded by TMPGEnc (ver. 2.524.63.181)

Video
ID                          : 224 (0xE0)
Format                      : MPEG Video
Format version              : Version 2
Format profile              : Main@Main
Format settings, BVOP       : Yes
Format settings, Matrix     : Custom
Format settings, GOP        : Variable
Duration                    : 30s 0ms
Bit rate                    : 6 000 Kbps
Width                       : 720 pixels
Height                      : 576 pixels
Display aspect ratio        : 16:9
Frame rate                  : 25.000 fps
Standard                    : PAL
Color space                 : YUV
Chroma subsampling          : 4:2:0
Bit depth                   : 8 bits
Scan type                   : Progressive
Compression mode            : Lossy
Bits/(Pixel*Frame)          : 0.579
Time code of first frame    : 00:00:00:00
Time code source            : Group of pictures header
GOP, Open/Closed            : Closed
Stream size                 : 21.5 MiB (94%)
Writing library             : TMPGEnc 2.524.63.181
Color primaries             : BT.601 PAL
Transfer characteristics    : BT.470 System B, BT.470 System G
Matrix coefficients         : BT.601

Audio
ID                          : 189 (0xBD)-128 (0x80)
Format                      : AC-3
Format/Info                 : Audio Coding 3
Mode extension              : CM (complete main)
Format settings, Endianness : Big
Muxing mode                 : DVD-Video
Duration                    : 29s 984ms
Bit rate mode               : Constant
Bit rate                    : 224 Kbps
Channel(s)                  : 2 channels
Channel positions           : Front: L R
Sampling rate               : 48.0 KHz
Bit depth                   : 16 bits
Compression mode            : Lossy
Stream size                 : 820 KiB (4%)

Text #1
ID                          : 189 (0xBD)-32 (0x20)
Format                      : RLE
Format/Info                 : Run-length encoding
Muxing mode                 : DVD-Video
Duration                    : 28s 0ms
Delay relative to video     : 1s 200ms

Text #2
ID                          : 189 (0xBD)-33 (0x21)
Format                      : RLE
Format/Info                 : Run-length encoding
Muxing mode                 : DVD-Video
Duration                    : 28s 0ms
Delay relative to video     : 1s 200ms

Menu

download

Kód: Vybrat vše

https://bitster.cz/file/eddcc6/Pravek_utaci_2_serie_Dvd_1-rar
Obrázek

Kód: Vybrat vše

http://datoid.cz/?p=143827  
Odpovědět

Zpět na „Seriály“