Mr. Bean / Mr. Bean (1989)

Originální dvd seriálů

Moderátor: KlopuX

Odpovědět
Uživatelský avatar
martanius
Palubní technik
Palubní technik
Příspěvky: 768
Registrován: 20 kvě 2009 17:46
Dostal poděkování: 24 poděkování

Mr. Bean / Mr. Bean (1989)

Příspěvek od martanius » 14 kvě 2013 10:45

Každý ho zná. Obyčejný nenápadný chlapík středního věku a ze střední vrstvy. Jeho přátelé a rodina snad ani neexistují a jakékoliv navázání nějakého vztahu skončí katastrofou. Nemá rád lidi, má rád jenom sám sebe (snad ještě svého medvídka). Věčný smolař, který zažívá úplně obyčejné věci. Ale ke všemu má svůj originální a vtipný postoj. Snad proto ho všichni milují. To je Mr. Bean.

Kód: Vybrat vše

http://www.csfd.cz/film/72411-mr-bean/
Kvalita

Kód: Vybrat vše

General
Complete name                            : F:\VIDEO_TS\VTS_02_1.VOB
Format                                   : MPEG-PS
File size                                : 1 024 MiB
Duration                                 : 19mn 53s
Overall bit rate mode                    : Variable
Overall bit rate                         : 7 193 Kbps

Video
ID                                       : 224 (0xE0)
Format                                   : MPEG Video
Format version                           : Version 2
Format profile                           : Main@Main
Format settings, BVOP                    : Yes
Format settings, Matrix                  : Custom
Duration                                 : 19mn 53s
Bit rate mode                            : Variable
Bit rate                                 : 6 826 Kbps
Maximum bit rate                         : 9 800 Kbps
Width                                    : 720 pixels
Height                                   : 576 pixels
Display aspect ratio                     : 4:3
Frame rate                               : 25.000 fps
Standard                                 : PAL
Color space                              : YUV
Chroma subsampling                       : 4:2:0
Bit depth                                : 8 bits
Scan type                                : Interlaced
Scan order                               : Top Field First
Compression mode                         : Lossy
Bits/(Pixel*Frame)                       : 0.658
Stream size                              : 971 MiB (95%)

Audio
ID                                       : 189 (0xBD)-128 (0x80)
Format                                   : AC-3
Format/Info                              : Audio Coding 3
Mode extension                           : CM (complete main)
Format settings, Endianness              : Big
Muxing mode                              : DVD-Video
Duration                                 : 19mn 53s
Bit rate mode                            : Constant
Bit rate                                 : 224 Kbps
Channel(s)                               : 2 channels
Channel positions                        : Front: L R
Sampling rate                            : 48.0 KHz
Bit depth                                : 16 bits
Compression mode                         : Lossy
Stream size                              : 31.9 MiB (3%)

Menu

DVD 1

Obrázek

Zvuk: 2.0 anglicky (seriál je němý)
Titulky: česky
Délka: 170 minut
Menu: ANO
Bonusy: ANO

Díly:

1. Mr. Bean
2. Dobrou noc, pane Beane
3. Pozor na dítě, pane Beane
4. Trampoty pana Beana

Download

Kód: Vybrat vše

http://megarapid.cz/soubor/101993/mrbean1-dvd-part01_rar 
http://megarapid.cz/soubor/101991/mrbean1-dvd-part02_rar 
http://megarapid.cz/soubor/102004/mrbean1-dvd-part03_rar 
http://megarapid.cz/soubor/102007/mrbean1-dvd-part04_rar 
http://megarapid.cz/soubor/102019/mrbean1-dvd-part05_rar 
http://megarapid.cz/soubor/102022/mrbean1-dvd-part06_rar 
http://megarapid.cz/soubor/102031/mrbean1-dvd-part07_rar 
http://megarapid.cz/soubor/102035/mrbean1-dvd-part08_rar 
http://megarapid.cz/soubor/102038/mrbean1-dvd-part09_rar 
DVD 2

Obrázek

Zvuk: 2.0 anglicky (seriál je němý)
Titulky: česky
Délka: 173 minut
Menu: ANO
Bonusy: ANO

Díly:

1. Pan Bean jde do města
2. Pan Bean opět jezdí
3. Pan Bean v pokoji 426
4. Udělejte to sám, pane Beane
5. Vlasy od pana Beana

Download

Kód: Vybrat vše

http://megarapid.cz/soubor/102048/mrbean2-dvd-part01_rar 
http://megarapid.cz/soubor/102050/mrbean2-dvd-part02_rar 
http://megarapid.cz/soubor/102057/mrbean2-dvd-part03_rar 
http://megarapid.cz/soubor/102061/mrbean2-dvd-part04_rar 
http://megarapid.cz/soubor/102066/mrbean2-dvd-part05_rar 
http://megarapid.cz/soubor/102069/mrbean2-dvd-part06_rar 
http://megarapid.cz/soubor/102076/mrbean2-dvd-part07_rar 
http://megarapid.cz/soubor/102078/mrbean2-dvd-part08_rar 
http://megarapid.cz/soubor/102079/mrbean2-dvd-part09_rar 
Naposledy upravil(a) martanius dne 01 čer 2014 20:28, celkem upraveno 1 x.
Mé DVD uploady jsou čisté kopie originálů, bez komprese.
carstalin
Kachna
Kachna
Příspěvky: 13
Registrován: 04 bře 2009 20:20

Mr. Bean: Best-Of mix (1989)

Příspěvek od carstalin » 06 črc 2013 22:08

Mr. Bean - Best-Of mix (1989)

ObrázekObrázek
Obrázek


CSFD:

Kód: Vybrat vše

http://www.csfd.cz/film/72411-mr-bean/

Komedie / Rodinný
Velká Británie, 1989

Režie: John Birkin, Paul Weiland, John Howard Davies
Hrají: Rowan Atkinson, Robin Driscoll, Matilda Ziegler, Angus Deayton, Sophie Thompson

Každý ho zná. Obyčejný nenápadný chlapík středního věku a ze střední vrstvy. Jeho přátelé a rodina snad ani neexistují a jakékoliv navázání nějakého vztahu skončí katastrofou. Nemá rád lidi, má rád jenom sám sebe (snad ještě svého medvídka). Věčný smolař, který zažívá úplně obyčejné věci. Ale ke všemu má svůj originální a vtipný postoj. Snad proto ho všichni milují. To je Mr. Bean a jeho příběhy . . .






INFO:

  • Komedie / Rodinný
    Velká Británie, 1989, 72 min

    Režie: John Birkin, Paul Weiland, John Howard Davies
    Hrají: Rowan Atkinson, Robin Driscoll, Matilda Ziegler
KVALITA:
  • Formát: 1x Avi, 3x MPEG-4 File Format (.MP4)
    Velikost: Celkem 440MB
    Zvuk: 2ch Anglicky
    Titulky: české

DÍLY:
  • 1) Zubař
    2) Televize
    3) Autobusová zastávka
    4) Svačinka


DOWNLOAD:

Obrázek

Kód: Vybrat vše

1)    http://download.hellshare.cz/filmy/mr-bean-s1e6-avi/14223194/            (234MB)
2)    http://download.hellshare.cz/filmy/mr-bean-ii-mp4/14223666/              (105MB)
3)    http://download.hellshare.cz/filmy/mr-bean-zastavka-mp4/14220893/         (71MB)
4)    http://download.hellshare.cz/filmy/mr-bean-svacinka-mp4/14220474/         (30MB)
Odpovědět

Zpět na „Seriály“