The Bible(2013)

Moderátor: KlopuX

Odpovědět
Uživatelský avatar
dave1970
Post man
Post man
Příspěvky: 2028
Registrován: 07 dub 2007 12:17
Dostal poděkování: 33 poděkování

The Bible(2013)

Příspěvek od dave1970 » 12 srp 2015 19:44

The Bible / EN / Avi / CZ titulky

Obrázek

Kód: Vybrat vše

http://www.csfd.cz/film/333396-bible-the/ 
Známý producent Mark Burnett se pouští do svého životního díla. Dokumentární seriál během pěti dvouhodinových epizod pokrývá zásadní události popsané v Bibli, vše podstatné od Genesis po Zjevení. Každý díl popisuje tři příběhy z Bible vyprávěné pomocí hraných scén a počítačově generované grafiky. Příběhy samotné jsou založené na nové mezinárodní verzi Bible.

Kód: Vybrat vše

General
Complete name                            : C:\Users\David\Downloads\BIBLE\The Bible S01-E01-E02\BBB.avi
Format                                   : AVI
Format/Info                              : Audio Video Interleave
File size                                : 732 MiB
Duration                                 : 1h 26mn
Overall bit rate mode                    : Variable
Overall bit rate                         : 1 176 Kbps

Video
ID                                       : 0
Format                                   : MPEG-4 Visual
Format profile                           : Advanced Simple@L5
Format settings, BVOP                    : 2
Format settings, QPel                    : No
Format settings, GMC                     : No warppoints
Format settings, Matrix                  : Default (H.263)
Codec ID                                 : XVID
Codec ID/Hint                            : XviD
Duration                                 : 1h 26mn
Bit rate                                 : 1 035 Kbps
Width                                    : 640 pixels
Height                                   : 360 pixels
Display aspect ratio                     : 16:9
Frame rate                               : 25.000 fps
Color space                              : YUV
Chroma subsampling                       : 4:2:0
Bit depth                                : 8 bits
Scan type                                : Progressive
Compression mode                         : Lossy
Bits/(Pixel*Frame)                       : 0.180
Stream size                              : 644 MiB (88%)
Writing library                          : XviD 64

Audio
ID                                       : 1
Format                                   : MPEG Audio
Format version                           : Version 1
Format profile                           : Layer 3
Mode                                     : Joint stereo
Mode extension                           : MS Stereo
Codec ID                                 : 55
Codec ID/Hint                            : MP3
Duration                                 : 1h 26mn
Bit rate mode                            : Variable
Bit rate                                 : 128 Kbps
Channel(s)                               : 2 channels
Sampling rate                            : 48.0 KHz
Compression mode                         : Lossy
Stream size                              : 79.6 MiB (11%)
Alignment                                : Aligned on interleaves
Interleave, duration                     : 24 ms (0.60 video frame)
Interleave, preload duration             : 178 ms
Title                                    : The.Bible.Part1-Part2.HDTV.XviD-AFG_360p.audio
CZ Titulky jsou v rarech
10 dílů :
Download :

Kód: Vybrat vše

http://download.hellshare.cz/bible/35443468/
Odpovědět

Zpět na „Seriály“