Baby Driver ( 2017)

Aktuální novinky filmové scény

Moderátor: KlopuX

Odpovědět
Uživatelský avatar
tonyr
Radista
Radista
Příspěvky: 159
Registrován: 25 srp 2006 13:03
Dostal poděkování: 17 poděkování
Kontaktovat uživatele:

Baby Driver ( 2017)

Příspěvek od tonyr » 11 říj 2017 11:16

Baby Driver 2017
Obrázek

Baby.Driver.2017.BRRip.XviD.AC3.CZ


Info:
Kvalita:
BabDri.2017.BRRip.XviD..CZ-.avi (1771 MB)
Audio: 6 channels | ac3 640 Kbps Constant
Video: 720×302px | XVID | 1 546 Kbps | 23.976 fps

Akční / Hudební / Krimi / Thriller
Velká Británie / USA, 2017, 112 min



Obrázek

Kód: Vybrat vše

http://download.hellshare.cz/babdri-2017-brrip-xvid-cz-avi/62492226/

Kód: Vybrat vše

http://www.fastshare.cz/7956834/baby.driver.2017.brrip.xvid.ac3.cz-.avi

Kód: Vybrat vše

https://www.uloz.to/!FDak1yJnwEnq/babdri-2017-brrip-xvid-cz-avi
Uživatelský avatar
gulio
Navigátor
Navigátor
Příspěvky: 1128
Registrován: 20 led 2008 16:56
Dostal poděkování: 49 poděkování

Baby Driver ( 2017)

Příspěvek od gulio » 12 říj 2017 14:01

Obrázek



Baby Driver (2017)


BRRip/CZ


FORCED Titulky CZ!!!


Obrázek Baby Driver
Obrázek Baby Driver



Akční / Hudební / Krimi / Thriller

Velká Británie / USA, 2017, 112 min
Režie: Edgar Wright
Scénář: Edgar Wright
Kamera: Bill Pope
Hudba: Steven Price
Hrají: Ansel Elgort, Lily James, Kevin Spacey, Jon Hamm,
Eiza González, Jamie Foxx, Jon Bernthal, Sky Ferreira,
Viviana Chavez, Flea, Wilbur Fitzgerald, Elizabeth Davidovich,
Lanny Joon, Hudson Meek, Jeff Chase, Paul Williams



Kód: Vybrat vše

https://www.csfd.cz/film/64015-baby-driver/prehled/


Talentovaný mladý řidič (Ansel Elgort), který zajišťuje zločincům únik z místa činu, je ve své práci tím
nejlepším z oboru i díky hudbě, kterou si během ní pouští. Když se Baby setká s dívkou svých snů (Lily James),
vnímá to jako příležitost opustit život zločince a začít znovu. Poté, co je ale mafiánským bossem (Kevin Spacey)
přinucen zúčastnit se další akce, která je předem odsouzena k neúspěchu, ocitá se v ohrožení jeho život, láska i svoboda.



SCREEN

Obrázek


MediaInfo:

General : C:\Film avi\AVI\BabDri17\Baby-Driver-BRRip-Cz-2017.mkv
Format : Matroska at 2 498 kb/s
Length : 1,97 GiB for 1 h 52 min 39 sek. 808 ms

Video #0 : AVC at 2 050 kb/s
Aspect : 1920 x 800 (2.400) at 23.976 fps

Audio #0 : AC-3 at 448 kb/s
Infos : 6 kanálov, 48,0 kHz
Language : cs

Text #0 : UTF-8
Language : cs



Obrázek

Kód: Vybrat vše

http://fastshare.cz/7957603/baby-driver-brrip-cz-2017.mkv
Obrázek

Kód: Vybrat vše

http://download.hellshare.sk/baby-driver-brrip-cz-2017-mkv/62497431/
Obrázek

Kód: Vybrat vše

https://uloz.to/!9Wz294SfhA0a/baby-driver-brrip-cz-2017-mkv
No Pass!
Keď vám winrar pri rozbalovaní ukáže nesuhlasí crc tak najprv zaškrtnite položku
,,Ponechať poškodené subory"a keď to nepomože tak použite zaznam na opravu,dat je tam 5%.
(v hornej lište Nástroje - Opraviť archív)V tomto prípade WinRar vytvorí opravený súbor,
ktorý začína slovom "fixed".Tento výraz je ale potrebné zmazať po oprave a rozbalit vo win rar.
Alebo použite 7zip ten to rozbali bez problémov!!!
browing3006
Navigátor
Navigátor
Příspěvky: 1150
Registrován: 30 bře 2016 18:42
Dostal poděkování: 209 poděkování

Baby Driver ( 2017)

Příspěvek od browing3006 » 21 říj 2017 15:43

Baby Driver (2017)

CSFD:

Kód: Vybrat vše

https://www.csfd.cz/film/64015-baby-driver/prehled/
http://www.imdb.com/title/tt3890160/
Obrázek

Baby.Driver.2017.BDRip.x264.MP3.CZ
Baby.Driver.2017.480p.BDRip.XviD.AC3.DD5.1.CZ
Baby.Driver.2017.720p.BDRip.XviD.AC3.DD5.1.CZ


Baby.Driver.2017.BDRip.x264.MP3.CZ
Jazyk: Czech
Subtitles: Czech forced

iNFO

Kód: Vybrat vše

 Format            : Matroska at 964 Kbps  
 Length            :  777 MiB for 1h 52mn 
 Video #0          : AVC at 817 Kbps 
 Aspect            : 720 x 302 (2,40:1) at 23,976 fps 
 Audio #0          :  MP3 at 128 Kbps 
 Infos             : 2 kanály, 48,0 KHz
Obrázek

Kód: Vybrat vše

http://fastshare.cz/7992368/babo1.mkv
Baby.Driver.2017.480p.BDRip.XviD.AC3.DD5.1.CZ

iNFO

Kód: Vybrat vše

 Format            : AVI at 2 192 Kbps  
 Length            :  1,73 GiB for 1h 52mn 
 Video #0          : MPEG-4 Visual at 1 546 Kbps 
 Aspect            : 720 x 302 (2,40:1) at 23,976 fps 
 Audio #0          :  AC3 at 640 Kbps 
 Infos             : 6 kanály, 48,0 KHz
Obrázek

Kód: Vybrat vše

http://fastshare.cz/7992440/babo2.avi
Baby.Driver.2017.720p.BDRip.XviD.AC3.DD5.1.CZ

iNFO

Kód: Vybrat vše

 Format            : AVI at 4 323 Kbps  
 Length            :  3,40 GiB for 1h 52mn 
 Video #0          : MPEG-4 Visual at 3 672 Kbps 
 Aspect            : 1 280 x 536 (2,40:1) at 23,976 fps 
 Audio #0          :  AC3 at 640 Kbps 
 Infos             : 6 kanály, 48,0 KHz
Obrázek

Kód: Vybrat vše

http://fastshare.cz/7993510/babo3.avi
Subs: Czech forced

Kód: Vybrat vše

http://fastshare.cz/7992342/babo.forced.cz.srt
warup
Navigátor
Navigátor
Příspěvky: 1290
Registrován: 05 zář 2014 20:01
Dal poděkování: 2 poděkování
Dostal poděkování: 1 poděkování

Baby Driver ( 2017)

Příspěvek od warup » 23 říj 2017 16:17

Baby.Driver.2017.BRRip.XviD.AC3.CZ-PiRaTE

Obrázek

info

Kód: Vybrat vše

https://www.csfd.cz/film/64015-baby-driver/prehled/
Akčné krimi Edgara Wrighta rozpráva príbeh hudbou posadnutého mladíka menom Baby (Ansel Elgort), ktorý robí šoféra bankovým lupičom. Keď sa zamiluje do čašníčky Debory (Lily James), chce dať zbohom kriminálnej minulosti a začať nový život so ženou svojich snov. Jeho šéf (Kevin Spacey) sa však najlepšieho únikového šoféra tak ľahko nevzdá...(Itafilm)
kvalita
General
Complete name : D:\up\Baby.Driver.2017.BRRip.XviD.AC3.CZ-PiRaTE.avi
Format : AVI
Format/Info : Audio Video Interleave
File size : 1.73 GiB
Duration : 1 h 52 min
Overall bit rate : 2 197 kb/s

Video
ID : 0
Format : MPEG-4 Visual
Format profile : Simple@L5
Format settings, BVOP : No
Format settings, QPel : No
Format settings, GMC : No warppoints
Format settings, Matrix : Default (H.263)
Codec ID : XVID
Codec ID/Hint : XviD
Duration : 1 h 52 min
Bit rate : 1 546 kb/s
Width : 720 pixels
Height : 302 pixels
Display aspect ratio : 2.40:1
Frame rate : 23.976 FPS
Color space : YUV
Chroma subsampling : 4:2:0
Bit depth : 8 bits
Scan type : Progressive
Compression mode : Lossy
Bits/(Pixel*Frame) : 0.296
Stream size : 1.22 GiB (70%)
Writing library : Lavc57.89.100

Audio
ID : 1
Format : AC-3
Format/Info : Audio Coding 3
Mode extension : CM (complete main)
Format settings, Endianness : Big
Codec ID : 2000
Duration : 1 h 52 min
Bit rate mode : Constant
Bit rate : 640 kb/s
Channel(s) : 6 channels
Channel positions : Front: L C R, Side: L R, LFE
Sampling rate : 48.0 kHz
Frame rate : 31.250 FPS (1536 spf)
Compression mode : Lossy
Stream size : 516 MiB (29%)
Alignment : Aligned on interleaves
Interleave, duration : 32 ms (0.77 video frame)
download

Kód: Vybrat vše

https://uloz.to/!eISeaMZgV3Ku/baby-driver-2017-brrip-xvid-ac3-cz-pirate-avi
Obrázek

Kód: Vybrat vše

http://datoid.cz/?p=143827  
janik43
Pozorovatel
Pozorovatel
Příspěvky: 59
Registrován: 15 srp 2008 13:51
Dostal poděkování: 10 poděkování

Baby Driver ( 2017)

Příspěvek od janik43 » 16 pro 2017 12:24

Baby.Driver.2017.720p.BDRip.XviD.AC3.DD5.1.CZ
Obrázek

Kód: Vybrat vše

https://www.csfd.cz/film/64015-baby-driver/prehled/

Kód: Vybrat vše

Format            : AVI at 4 323 Kbps  
 Length            :  3,40 GiB for 1h 52mn 
 Video #0          : MPEG-4 Visual at 3 672 Kbps 
 Aspect            : 1 280 x 536 (2,40:1) at 23,976 fps 
 Audio #0          :  AC3 at 640 Kbps 
 Infos             : 6 kanály, 48,0 KHz
Webshare.cz

Kód: Vybrat vše

https://webshare.cz/file/1GC5xi3z75/baby-driver-2017-720p-bdrip-xvid-ac3-dd5-1-cz-avi
Odpovědět

Zpět na „Novinky“