Právě je 17 říj 2017 08:56

Všechny časy jsou v UTC + 1 hodina



vyběrovky hip-hop,rap,techno,bluez atd ( 1980 - 2014) + dalši roky

[ Moderátorský panel ]



Odeslat nové téma Odpovědět na téma  [ Příspěvků: 155 ]  Přejít na stránku Předchozí  1 ... 3, 4, 5, 6, 7, 8, 9 ... 11  Další
Autor Zpráva
 Předmět příspěvku: vyběrovky hip-hop,rap,techno,bluez atd ( 1980 - 2014) + dalši roky
PříspěvekNapsal: 07 kvě 2017 18:16 
Navigátor

Registrován: 05 zář 2014 20:01
Příspěvky: 1062
Poděkoval: 4x
Poděkováno: 3x
W4A Money: 37170
Offline
Patrick Swayze - Hungry Eyes (Dirty Dancing Soundtrack)

Obrázek

kvalita

Pro zobrazení linků musíte být přihlášen!
Pokud ještě nemáte zaregistrovaný účet, můžete se zaregistrovat.


download

Pro zobrazení linků musíte být přihlášen!
Pokud ještě nemáte zaregistrovaný účet, můžete se zaregistrovat.

_________________
Obrázek

Pro zobrazení linků musíte být přihlášen!
Pokud ještě nemáte zaregistrovaný účet, můžete se zaregistrovat.


Nahoru
 Profil  
 Předmět příspěvku: vyběrovky hip-hop,rap,techno,bluez atd ( 1980 - 2014) + dalši roky
PříspěvekNapsal: 07 kvě 2017 18:21 
Navigátor

Registrován: 05 zář 2014 20:01
Příspěvky: 1062
Poděkoval: 4x
Poděkováno: 3x
W4A Money: 37170
Offline
Final Fantasy Vii Advent Children - Prelude

Obrázek

kvalita

Pro zobrazení linků musíte být přihlášen!
Pokud ještě nemáte zaregistrovaný účet, můžete se zaregistrovat.


download

Pro zobrazení linků musíte být přihlášen!
Pokud ještě nemáte zaregistrovaný účet, můžete se zaregistrovat.

_________________
Obrázek

Pro zobrazení linků musíte být přihlášen!
Pokud ještě nemáte zaregistrovaný účet, můžete se zaregistrovat.


Nahoru
 Profil  
 Předmět příspěvku: vyběrovky hip-hop,rap,techno,bluez atd ( 1980 - 2014) + dalši roky
PříspěvekNapsal: 07 kvě 2017 18:29 
Navigátor

Registrován: 05 zář 2014 20:01
Příspěvky: 1062
Poděkoval: 4x
Poděkováno: 3x
W4A Money: 37170
Offline
Lecrae - Prayin' for You

Obrázek

kvalita

Pro zobrazení linků musíte být přihlášen!
Pokud ještě nemáte zaregistrovaný účet, můžete se zaregistrovat.


download

Pro zobrazení linků musíte být přihlášen!
Pokud ještě nemáte zaregistrovaný účet, můžete se zaregistrovat.

_________________
Obrázek

Pro zobrazení linků musíte být přihlášen!
Pokud ještě nemáte zaregistrovaný účet, můžete se zaregistrovat.


Nahoru
 Profil  
 Předmět příspěvku: vyběrovky hip-hop,rap,techno,bluez atd ( 1980 - 2014) + dalši roky
PříspěvekNapsal: 02 čer 2017 07:09 
Navigátor

Registrován: 05 zář 2014 20:01
Příspěvky: 1062
Poděkoval: 4x
Poděkováno: 3x
W4A Money: 37170
Offline
06-arctic_monkeys-no._1_party_anthem

Obrázek

kvalita
Pro zobrazení linků musíte být přihlášen!
Pokud ještě nemáte zaregistrovaný účet, můžete se zaregistrovat.


download

Pro zobrazení linků musíte být přihlášen!
Pokud ještě nemáte zaregistrovaný účet, můžete se zaregistrovat.

_________________
Obrázek

Pro zobrazení linků musíte být přihlášen!
Pokud ještě nemáte zaregistrovaný účet, můžete se zaregistrovat.


Nahoru
 Profil  
 Předmět příspěvku: vyběrovky hip-hop,rap,techno,bluez atd ( 1980 - 2014) + dalši roky
PříspěvekNapsal: 19 čer 2017 13:31 
Navigátor

Registrován: 05 zář 2014 20:01
Příspěvky: 1062
Poděkoval: 4x
Poděkováno: 3x
W4A Money: 37170
Offline
Aneta Langerová - Spousta andělů
Pro zobrazení linků musíte být přihlášen!
Pokud ještě nemáte zaregistrovaný účet, můžete se zaregistrovat.


Daniel Landa - 1999 - Konec
Pro zobrazení linků musíte být přihlášen!
Pokud ještě nemáte zaregistrovaný účet, můžete se zaregistrovat.


Daniel Landa - Tajemství (2005)
Obrázek
Pro zobrazení linků musíte být přihlášen!
Pokud ještě nemáte zaregistrovaný účet, můžete se zaregistrovat.


DAVID MICHAL - Cas vitezstvi (CZ 2011)
Obrázek
Pro zobrazení linků musíte být přihlášen!
Pokud ještě nemáte zaregistrovaný účet, můžete se zaregistrovat.


Divokej Bill - Divokej Billl
Obrázek
Pro zobrazení linků musíte být přihlášen!
Pokud ještě nemáte zaregistrovaný účet, můžete se zaregistrovat.


DIVOKEJ BILL - Lucerna (CZ 2004)
Obrázek
Pro zobrazení linků musíte být přihlášen!
Pokud ještě nemáte zaregistrovaný účet, můžete se zaregistrovat.


Divokej Bill - Mezi nima
Obrázek
Pro zobrazení linků musíte být přihlášen!
Pokud ještě nemáte zaregistrovaný účet, můžete se zaregistrovat.


Divokej Bill - Propustka do pekel
Obrázek
Pro zobrazení linků musíte být přihlášen!
Pokud ještě nemáte zaregistrovaný účet, můžete se zaregistrovat.


Evanescence---Evanescence-(Deluxe-Version)-(2011)
Obrázek
Pro zobrazení linků musíte být přihlášen!
Pokud ještě nemáte zaregistrovaný účet, můžete se zaregistrovat.


Fosco Alma - Foscoismus
Obrázek
Pro zobrazení linků musíte být přihlášen!
Pokud ještě nemáte zaregistrovaný účet, můžete se zaregistrovat.


(01) Citta Violenta - Citta Violenta
Obrázek
Pro zobrazení linků musíte být přihlášen!
Pokud ještě nemáte zaregistrovaný účet, můžete se zaregistrovat.


5.Diky pane bože (prod. SAD )
Obrázek
Pro zobrazení linků musíte být přihlášen!
Pokud ještě nemáte zaregistrovaný účet, můžete se zaregistrovat.


11.5mcz Nosy nahoru
Pro zobrazení linků musíte být přihlášen!
Pokud ještě nemáte zaregistrovaný účet, můžete se zaregistrovat.


Binaural Files
Obrázek
Pro zobrazení linků musíte být přihlášen!
Pokud ještě nemáte zaregistrovaný účet, můžete se zaregistrovat.


01. Lose Yourself
Obrázek
Pro zobrazení linků musíte být přihlášen!
Pokud ještě nemáte zaregistrovaný účet, můžete se zaregistrovat.


02. Love Me
Obrázek
Pro zobrazení linků musíte být přihlášen!
Pokud ještě nemáte zaregistrovaný účet, můžete se zaregistrovat.


04. Adrenaline Rush
Obrázek
Pro zobrazení linků musíte být přihlášen!
Pokud ještě nemáte zaregistrovaný účet, můžete se zaregistrovat.


05 - Intro
Obrázek
Pro zobrazení linků musíte být přihlášen!
Pokud ještě nemáte zaregistrovaný účet, můžete se zaregistrovat.


05. Places To Go
Obrázek
Pro zobrazení linků musíte být přihlášen!
Pokud ještě nemáte zaregistrovaný účet, můžete se zaregistrovat.


07. 8 Miles And Runnin'
Obrázek
Pro zobrazení linků musíte být přihlášen!
Pokud ještě nemáte zaregistrovaný účet, můžete se zaregistrovat.


08. Spit Shine
Obrázek
Pro zobrazení linků musíte být přihlášen!
Pokud ještě nemáte zaregistrovaný účet, můžete se zaregistrovat.


09. Time Of My Life
Obrázek
Pro zobrazení linků musíte být přihlášen!
Pokud ještě nemáte zaregistrovaný účet, můžete se zaregistrovat.


10. U Wanna Be Me
Obrázek
Pro zobrazení linků musíte být přihlášen!
Pokud ještě nemáte zaregistrovaný účet, můžete se zaregistrovat.


11 - Miestny kovboj
Obrázek
Pro zobrazení linků musíte být přihlášen!
Pokud ještě nemáte zaregistrovaný účet, můžete se zaregistrovat.


11. Wanksta
Obrázek
Pro zobrazení linků musíte být přihlášen!
Pokud ještě nemáte zaregistrovaný účet, můžete se zaregistrovat.

_________________
Obrázek

Pro zobrazení linků musíte být přihlášen!
Pokud ještě nemáte zaregistrovaný účet, můžete se zaregistrovat.


Nahoru
 Profil  
 Předmět příspěvku: vyběrovky hip-hop,rap,techno,bluez atd ( 1980 - 2014) + dalši roky
PříspěvekNapsal: 22 čer 2017 06:43 
Navigátor

Registrován: 05 zář 2014 20:01
Příspěvky: 1062
Poděkoval: 4x
Poděkováno: 3x
W4A Money: 37170
Offline
12. Wasting My Time

Obrázek

kvalita

Citace:
General
Complete name : D:\up\1\12. Wasting My Time.flac
Format : FLAC
Format/Info : Free Lossless Audio Codec
File size : 21.4 MiB
Duration : 3 min 37 s
Overall bit rate mode : Variable
Overall bit rate : 825 kb/s
Album : 8 Mile
Album/Performer : Various
Track name : Wasting My Time
Track name/Position : 12
Performer : Boomkat (Taryn Manning)
Genre : Soundtrack
Recorded date : 2002
Comment : ExactAudioCopy v1.0b3

Audio
Format : FLAC
Format/Info : Free Lossless Audio Codec
Duration : 3 min 37 s
Bit rate mode : Variable
Bit rate : 825 kb/s
Channel(s) : 2 channels
Channel positions : Front: L R
Sampling rate : 44.1 kHz
Bit depth : 16 bits
Stream size : 21.4 MiB (100%)
Writing library : libFLAC 1.2.1 (UTC 2007-09-17)



download

Pro zobrazení linků musíte být přihlášen!
Pokud ještě nemáte zaregistrovaný účet, můžete se zaregistrovat.

_________________
Obrázek

Pro zobrazení linků musíte být přihlášen!
Pokud ještě nemáte zaregistrovaný účet, můžete se zaregistrovat.


Nahoru
 Profil  
 Předmět příspěvku: vyběrovky hip-hop,rap,techno,bluez atd ( 1980 - 2014) + dalši roky
PříspěvekNapsal: 22 čer 2017 06:49 
Navigátor

Registrován: 05 zář 2014 20:01
Příspěvky: 1062
Poděkoval: 4x
Poděkováno: 3x
W4A Money: 37170
Offline
13. R.A.K.I.M.
Obrázek

kvalita

Citace:
General
Complete name : D:\up\1\13. R.A.K.I.M..flac
Format : FLAC
Format/Info : Free Lossless Audio Codec
File size : 30.1 MiB
Duration : 4 min 23 s
Overall bit rate mode : Variable
Overall bit rate : 957 kb/s
Album : 8 Mile
Album/Performer : Various
Track name : R.A.K.I.M.
Track name/Position : 13
Performer : Rakim
Genre : Soundtrack
Recorded date : 2002
Comment : ExactAudioCopy v1.0b3

Audio
Format : FLAC
Format/Info : Free Lossless Audio Codec
Duration : 4 min 23 s
Bit rate mode : Variable
Bit rate : 957 kb/s
Channel(s) : 2 channels
Channel positions : Front: L R
Sampling rate : 44.1 kHz
Bit depth : 16 bits
Stream size : 30.1 MiB (100%)
Writing library : libFLAC 1.2.1 (UTC 2007-09-17)



download
Pro zobrazení linků musíte být přihlášen!
Pokud ještě nemáte zaregistrovaný účet, můžete se zaregistrovat.

_________________
Obrázek

Pro zobrazení linků musíte být přihlášen!
Pokud ještě nemáte zaregistrovaný účet, můžete se zaregistrovat.


Nahoru
 Profil  
 Předmět příspěvku: vyběrovky hip-hop,rap,techno,bluez atd ( 1980 - 2014) + dalši roky
PříspěvekNapsal: 22 čer 2017 06:59 
Navigátor

Registrován: 05 zář 2014 20:01
Příspěvky: 1062
Poděkoval: 4x
Poděkováno: 3x
W4A Money: 37170
Offline
14. That's My Nigga Fo' Real
Obrázek

kvalita
Citace:
General
Complete name : D:\up\1\14. That's My Nigga Fo' Real.flac
Format : FLAC
Format/Info : Free Lossless Audio Codec
File size : 29.8 MiB
Duration : 4 min 45 s
Overall bit rate mode : Variable
Overall bit rate : 875 kb/s
Album : 8 Mile
Album/Performer : Various
Track name : That's My Nigga Fo' Real
Track name/Position : 14
Performer : Young Zee
Genre : Soundtrack
Recorded date : 2002
Comment : ExactAudioCopy v1.0b3

Audio
Format : FLAC
Format/Info : Free Lossless Audio Codec
Duration : 4 min 45 s
Bit rate mode : Variable
Bit rate : 875 kb/s
Channel(s) : 2 channels
Channel positions : Front: L R
Sampling rate : 44.1 kHz
Bit depth : 16 bits
Stream size : 29.8 MiB (100%)
Writing library : libFLAC 1.2.1 (UTC 2007-09-17)



download
Pro zobrazení linků musíte být přihlášen!
Pokud ještě nemáte zaregistrovaný účet, můžete se zaregistrovat.

_________________
Obrázek

Pro zobrazení linků musíte být přihlášen!
Pokud ještě nemáte zaregistrovaný účet, můžete se zaregistrovat.


Nahoru
 Profil  
 Předmět příspěvku: vyběrovky hip-hop,rap,techno,bluez atd ( 1980 - 2014) + dalši roky
PříspěvekNapsal: 22 čer 2017 07:32 
Navigátor

Registrován: 05 zář 2014 20:01
Příspěvky: 1062
Poděkoval: 4x
Poděkováno: 3x
W4A Money: 37170
Offline
15. Battle
Obrázek

kvalita
Citace:
General
Complete name : D:\up\1\15. Battle.flac
Format : FLAC
Format/Info : Free Lossless Audio Codec
File size : 15.8 MiB
Duration : 2 min 56 s
Overall bit rate mode : Variable
Overall bit rate : 749 kb/s
Album : 8 Mile
Album/Performer : Various
Track name : Battle
Track name/Position : 15
Performer : Gangstarr
Genre : Soundtrack
Recorded date : 2002
Comment : ExactAudioCopy v1.0b3

Audio
Format : FLAC
Format/Info : Free Lossless Audio Codec
Duration : 2 min 56 s
Bit rate mode : Variable
Bit rate : 749 kb/s
Channel(s) : 2 channels
Channel positions : Front: L R
Sampling rate : 44.1 kHz
Bit depth : 16 bits
Stream size : 15.8 MiB (100%)
Writing library : libFLAC 1.2.1 (UTC 2007-09-17)


download
Pro zobrazení linků musíte být přihlášen!
Pokud ještě nemáte zaregistrovaný účet, můžete se zaregistrovat.

_________________
Obrázek

Pro zobrazení linků musíte být přihlášen!
Pokud ještě nemáte zaregistrovaný účet, můžete se zaregistrovat.


Nahoru
 Profil  
 Předmět příspěvku: vyběrovky hip-hop,rap,techno,bluez atd ( 1980 - 2014) + dalši roky
PříspěvekNapsal: 27 čer 2017 13:45 
Navigátor

Registrován: 05 zář 2014 20:01
Příspěvky: 1062
Poděkoval: 4x
Poděkováno: 3x
W4A Money: 37170
Offline
Track09
Obrázek

kvalita

Citace:
General
Complete name : D:\up\1\Track09.cda
Format : CDDA
Format/Info : Compact Disc for Digital Audio
File size : 47.5 MiB
Duration : 4 min 42 s
Overall bit rate : 1 411 kb/s
Track name/Position : 9

Audio
Format : PCM
Format settings, Endianness : Little
Duration : 4 min 42 s
Bit rate : 1 411.2 kb/s
Channel(s) : 2 channels
Sampling rate : 44.1 kHz
Frame rate : 75.000 FPS (588 spf)
Bit depth : 16 bits
Compression mode : Lossless
Stream size : 47.5 MiB (100%)


download
Pro zobrazení linků musíte být přihlášen!
Pokud ještě nemáte zaregistrovaný účet, můžete se zaregistrovat.

_________________
Obrázek

Pro zobrazení linků musíte být přihlášen!
Pokud ještě nemáte zaregistrovaný účet, můžete se zaregistrovat.


Nahoru
 Profil  
 Předmět příspěvku: vyběrovky hip-hop,rap,techno,bluez atd ( 1980 - 2014) + dalši roky
PříspěvekNapsal: 27 čer 2017 13:57 
Navigátor

Registrován: 05 zář 2014 20:01
Příspěvky: 1062
Poděkoval: 4x
Poděkováno: 3x
W4A Money: 37170
Offline
Track10
Obrázek

kvalita
Citace:
General
Complete name : D:\up\1\Track10.cda
Format : CDDA
Format/Info : Compact Disc for Digital Audio
File size : 33.7 MiB
Duration : 3 min 20 s
Overall bit rate : 1 411 kb/s
Track name/Position : 10

Audio
Format : PCM
Format settings, Endianness : Little
Duration : 3 min 20 s
Bit rate : 1 411.2 kb/s
Channel(s) : 2 channels
Sampling rate : 44.1 kHz
Frame rate : 75.000 FPS (588 spf)
Bit depth : 16 bits
Compression mode : Lossless
Stream size : 33.7 MiB (100%)


download
Pro zobrazení linků musíte být přihlášen!
Pokud ještě nemáte zaregistrovaný účet, můžete se zaregistrovat.

_________________
Obrázek

Pro zobrazení linků musíte být přihlášen!
Pokud ještě nemáte zaregistrovaný účet, můžete se zaregistrovat.


Nahoru
 Profil  
 Předmět příspěvku: vyběrovky hip-hop,rap,techno,bluez atd ( 1980 - 2014) + dalši roky
PříspěvekNapsal: 28 čer 2017 16:45 
Navigátor

Registrován: 05 zář 2014 20:01
Příspěvky: 1062
Poděkoval: 4x
Poděkováno: 3x
W4A Money: 37170
Offline
nelly7-kvuli-cemu-text-hudba-nella
Obrázek


kvalita
Citace:
General
Complete name : D:\up\1\nelly7-kvuli-cemu-text-hudba-nella.mp3
Format : MPEG Audio
File size : 1.64 MiB
Duration : 1 min 47 s
Overall bit rate mode : Constant
Overall bit rate : 128 kb/s
Album : Single
Track name : Kvůli čemu?
Track name/Position : 05
Performer : Nella Kornelie Szturcová
Genre : differents
Recorded date : 2009
Writing library : LAME3.98r

Audio
Format : MPEG Audio
Format version : Version 1
Format profile : Layer 3
Duration : 1 min 47 s
Bit rate mode : Constant
Bit rate : 128 kb/s
Channel(s) : 2 channels
Sampling rate : 44.1 kHz
Compression mode : Lossy
Stream size : 1.64 MiB (100%)
Writing library : LAME3.98r
Encoding settings : -m s -V 4 -q 3 -lowpass 17 -b 128


download
Pro zobrazení linků musíte být přihlášen!
Pokud ještě nemáte zaregistrovaný účet, můžete se zaregistrovat.

_________________
Obrázek

Pro zobrazení linků musíte být přihlášen!
Pokud ještě nemáte zaregistrovaný účet, můžete se zaregistrovat.


Nahoru
 Profil  
 Předmět příspěvku: vyběrovky hip-hop,rap,techno,bluez atd ( 1980 - 2014) + dalši roky
PříspěvekNapsal: 28 čer 2017 16:58 
Navigátor

Registrován: 05 zář 2014 20:01
Příspěvky: 1062
Poděkoval: 4x
Poděkováno: 3x
W4A Money: 37170
Offline
nelly7-sileny-coldplay
Obrázek

KVALITA
Citace:
General
Complete name : D:\up\1\nelly7-sileny-coldplay.mp3
Format : MPEG Audio
File size : 2.26 MiB
Duration : 2 min 27 s
Overall bit rate mode : Variable
Overall bit rate : 129 kb/s
Writing library : LAME3.98

Audio
Format : MPEG Audio
Format version : Version 1
Format profile : Layer 3
Mode : Joint stereo
Mode extension : MS Stereo
Duration : 2 min 27 s
Bit rate mode : Variable
Bit rate : 128 kb/s
Channel(s) : 2 channels
Sampling rate : 44.1 kHz
Compression mode : Lossy
Stream size : 2.26 MiB (100%)
Writing library : LAME3.98



download

Pro zobrazení linků musíte být přihlášen!
Pokud ještě nemáte zaregistrovaný účet, můžete se zaregistrovat.

_________________
Obrázek

Pro zobrazení linků musíte být přihlášen!
Pokud ještě nemáte zaregistrovaný účet, můžete se zaregistrovat.


Nahoru
 Profil  
 Předmět příspěvku: vyběrovky hip-hop,rap,techno,bluez atd ( 1980 - 2014) + dalši roky
PříspěvekNapsal: 28 čer 2017 17:12 
Navigátor

Registrován: 05 zář 2014 20:01
Příspěvky: 1062
Poděkoval: 4x
Poděkováno: 3x
W4A Money: 37170
Offline
skungkdjmcsolo-instrumental-skungk-say-no-more-2013
Obrázek


kvalita
Citace:
General
Complete name : D:\up\1\skungkdjmcsolo-instrumental-skungk-say-no-more-2013.mp3
Format : MPEG Audio
File size : 2.56 MiB
Duration : 1 min 43 s
Overall bit rate mode : Variable
Overall bit rate : 207 kb/s
Writing library : Lavf52.111.0

Audio
Format : MPEG Audio
Format version : Version 1
Format profile : Layer 3
Mode : Joint stereo
Duration : 1 min 43 s
Bit rate mode : Variable
Bit rate : 207 kb/s
Channel(s) : 2 channels
Sampling rate : 44.1 kHz
Compression mode : Lossy
Stream size : 2.56 MiB (100%)

Pro zobrazení linků musíte být přihlášen!
Pokud ještě nemáte zaregistrovaný účet, můžete se zaregistrovat.

_________________
Obrázek

Pro zobrazení linků musíte být přihlášen!
Pokud ještě nemáte zaregistrovaný účet, můžete se zaregistrovat.


Nahoru
 Profil  
 Předmět příspěvku: vyběrovky hip-hop,rap,techno,bluez atd ( 1980 - 2014) + dalši roky
PříspěvekNapsal: 28 čer 2017 17:21 
Navigátor

Registrován: 05 zář 2014 20:01
Příspěvky: 1062
Poděkoval: 4x
Poděkováno: 3x
W4A Money: 37170
Offline
skungkdjmcsolo-skungk-nechci-intro-demo-tape-2013

kvalita

Citace:
General
Complete name : D:\up\1\skungkdjmcsolo-skungk-nechci-intro-demo-tape-2013.mp3
Format : MPEG Audio
File size : 1.87 MiB
Duration : 1 min 38 s
Overall bit rate mode : Variable
Overall bit rate : 160 kb/s
Writing library : Lavf52.111.0

Audio
Format : MPEG Audio
Format version : Version 1
Format profile : Layer 3
Mode : Joint stereo
Mode extension : MS Stereo
Duration : 1 min 38 s
Bit rate mode : Variable
Bit rate : 160 kb/s
Channel(s) : 2 channels
Sampling rate : 44.1 kHz
Compression mode : Lossy
Stream size : 1.87 MiB (100%)



download
Pro zobrazení linků musíte být přihlášen!
Pokud ještě nemáte zaregistrovaný účet, můžete se zaregistrovat.

_________________
Obrázek

Pro zobrazení linků musíte být přihlášen!
Pokud ještě nemáte zaregistrovaný účet, můžete se zaregistrovat.


Nahoru
 Profil  
Zobrazit příspěvky za předchozí:  Seřadit podle  
Odpovědět na téma  [ Příspěvků: 155 ]  Přejít na stránku Předchozí  1 ... 3, 4, 5, 6, 7, 8, 9 ... 11  Další

Všechny časy jsou v UTC + 1 hodina


Kdo je online

Uživatelé procházející toto fórum: Žádní registrovaní uživatelé a 1 návštěvník



Nemůžete zakládat nová témata v tomto fóru
Nemůžete odpovídat v tomto fóru
Nemůžete upravovat své příspěvky v tomto fóru
Nemůžete mazat své příspěvky v tomto fóru
Nemůžete přikládat soubory v tomto fóru

Přejít na:  

Time : 0.211s | 33 Queries | GZIP : Off

Filmy ke stažení zdarma | Cheaty | Pocket PC | Android | Windows Phone 7 | iGO 8 | Apple iPhone | Symbian Smartphone | ROM | Windows Mobile | BlackBerry | Palm | Java | Warez mobile forum