Právě je 27 čer 2017 01:04

Všechny časy jsou v UTC + 1 hodina



vyběrovky hip-hop,rap,techno,bluez atd ( 1980 - 2014) + dalši roky

[ Moderátorský panel ]



Odeslat nové téma Odpovědět na téma  [ Příspěvků: 84 ]  Přejít na stránku Předchozí  1, 2, 3, 4, 5, 6
Autor Zpráva
 Předmět příspěvku: vyběrovky hip-hop,rap,techno,bluez atd ( 1980 - 2014) + dalši roky
PříspěvekNapsal: 07 kvě 2017 18:16 
Palubní technik

Registrován: 05 zář 2014 20:01
Příspěvky: 928
Poděkoval: 4x
Poděkováno: 2x
W4A Money: 31590
Offline
Patrick Swayze - Hungry Eyes (Dirty Dancing Soundtrack)

Obrázek

kvalita

Pro zobrazení linků musíte být přihlášen!
Pokud ještě nemáte zaregistrovaný účet, můžete se zaregistrovat.


download

Pro zobrazení linků musíte být přihlášen!
Pokud ještě nemáte zaregistrovaný účet, můžete se zaregistrovat.

_________________
Obrázek

Pro zobrazení linků musíte být přihlášen!
Pokud ještě nemáte zaregistrovaný účet, můžete se zaregistrovat.


Nahoru
 Profil  
 Předmět příspěvku: vyběrovky hip-hop,rap,techno,bluez atd ( 1980 - 2014) + dalši roky
PříspěvekNapsal: 07 kvě 2017 18:21 
Palubní technik

Registrován: 05 zář 2014 20:01
Příspěvky: 928
Poděkoval: 4x
Poděkováno: 2x
W4A Money: 31590
Offline
Final Fantasy Vii Advent Children - Prelude

Obrázek

kvalita

Pro zobrazení linků musíte být přihlášen!
Pokud ještě nemáte zaregistrovaný účet, můžete se zaregistrovat.


download

Pro zobrazení linků musíte být přihlášen!
Pokud ještě nemáte zaregistrovaný účet, můžete se zaregistrovat.

_________________
Obrázek

Pro zobrazení linků musíte být přihlášen!
Pokud ještě nemáte zaregistrovaný účet, můžete se zaregistrovat.


Nahoru
 Profil  
 Předmět příspěvku: vyběrovky hip-hop,rap,techno,bluez atd ( 1980 - 2014) + dalši roky
PříspěvekNapsal: 07 kvě 2017 18:29 
Palubní technik

Registrován: 05 zář 2014 20:01
Příspěvky: 928
Poděkoval: 4x
Poděkováno: 2x
W4A Money: 31590
Offline
Lecrae - Prayin' for You

Obrázek

kvalita

Pro zobrazení linků musíte být přihlášen!
Pokud ještě nemáte zaregistrovaný účet, můžete se zaregistrovat.


download

Pro zobrazení linků musíte být přihlášen!
Pokud ještě nemáte zaregistrovaný účet, můžete se zaregistrovat.

_________________
Obrázek

Pro zobrazení linků musíte být přihlášen!
Pokud ještě nemáte zaregistrovaný účet, můžete se zaregistrovat.


Nahoru
 Profil  
 Předmět příspěvku: vyběrovky hip-hop,rap,techno,bluez atd ( 1980 - 2014) + dalši roky
PříspěvekNapsal: 02 čer 2017 07:09 
Palubní technik

Registrován: 05 zář 2014 20:01
Příspěvky: 928
Poděkoval: 4x
Poděkováno: 2x
W4A Money: 31590
Offline
06-arctic_monkeys-no._1_party_anthem

Obrázek

kvalita
Pro zobrazení linků musíte být přihlášen!
Pokud ještě nemáte zaregistrovaný účet, můžete se zaregistrovat.


download

Pro zobrazení linků musíte být přihlášen!
Pokud ještě nemáte zaregistrovaný účet, můžete se zaregistrovat.

_________________
Obrázek

Pro zobrazení linků musíte být přihlášen!
Pokud ještě nemáte zaregistrovaný účet, můžete se zaregistrovat.


Nahoru
 Profil  
 Předmět příspěvku: vyběrovky hip-hop,rap,techno,bluez atd ( 1980 - 2014) + dalši roky
PříspěvekNapsal: 19 čer 2017 13:31 
Palubní technik

Registrován: 05 zář 2014 20:01
Příspěvky: 928
Poděkoval: 4x
Poděkováno: 2x
W4A Money: 31590
Offline
Aneta Langerová - Spousta andělů
Pro zobrazení linků musíte být přihlášen!
Pokud ještě nemáte zaregistrovaný účet, můžete se zaregistrovat.


Daniel Landa - 1999 - Konec
Pro zobrazení linků musíte být přihlášen!
Pokud ještě nemáte zaregistrovaný účet, můžete se zaregistrovat.


Daniel Landa - Tajemství (2005)
Obrázek
Pro zobrazení linků musíte být přihlášen!
Pokud ještě nemáte zaregistrovaný účet, můžete se zaregistrovat.


DAVID MICHAL - Cas vitezstvi (CZ 2011)
Obrázek
Pro zobrazení linků musíte být přihlášen!
Pokud ještě nemáte zaregistrovaný účet, můžete se zaregistrovat.


Divokej Bill - Divokej Billl
Obrázek
Pro zobrazení linků musíte být přihlášen!
Pokud ještě nemáte zaregistrovaný účet, můžete se zaregistrovat.


DIVOKEJ BILL - Lucerna (CZ 2004)
Obrázek
Pro zobrazení linků musíte být přihlášen!
Pokud ještě nemáte zaregistrovaný účet, můžete se zaregistrovat.


Divokej Bill - Mezi nima
Obrázek
Pro zobrazení linků musíte být přihlášen!
Pokud ještě nemáte zaregistrovaný účet, můžete se zaregistrovat.


Divokej Bill - Propustka do pekel
Obrázek
Pro zobrazení linků musíte být přihlášen!
Pokud ještě nemáte zaregistrovaný účet, můžete se zaregistrovat.


Evanescence---Evanescence-(Deluxe-Version)-(2011)
Obrázek
Pro zobrazení linků musíte být přihlášen!
Pokud ještě nemáte zaregistrovaný účet, můžete se zaregistrovat.


Fosco Alma - Foscoismus
Obrázek
Pro zobrazení linků musíte být přihlášen!
Pokud ještě nemáte zaregistrovaný účet, můžete se zaregistrovat.


(01) Citta Violenta - Citta Violenta
Obrázek
Pro zobrazení linků musíte být přihlášen!
Pokud ještě nemáte zaregistrovaný účet, můžete se zaregistrovat.


5.Diky pane bože (prod. SAD )
Obrázek
Pro zobrazení linků musíte být přihlášen!
Pokud ještě nemáte zaregistrovaný účet, můžete se zaregistrovat.


11.5mcz Nosy nahoru
Pro zobrazení linků musíte být přihlášen!
Pokud ještě nemáte zaregistrovaný účet, můžete se zaregistrovat.


Binaural Files
Obrázek
Pro zobrazení linků musíte být přihlášen!
Pokud ještě nemáte zaregistrovaný účet, můžete se zaregistrovat.


01. Lose Yourself
Obrázek
Pro zobrazení linků musíte být přihlášen!
Pokud ještě nemáte zaregistrovaný účet, můžete se zaregistrovat.


02. Love Me
Obrázek
Pro zobrazení linků musíte být přihlášen!
Pokud ještě nemáte zaregistrovaný účet, můžete se zaregistrovat.


04. Adrenaline Rush
Obrázek
Pro zobrazení linků musíte být přihlášen!
Pokud ještě nemáte zaregistrovaný účet, můžete se zaregistrovat.


05 - Intro
Obrázek
Pro zobrazení linků musíte být přihlášen!
Pokud ještě nemáte zaregistrovaný účet, můžete se zaregistrovat.


05. Places To Go
Obrázek
Pro zobrazení linků musíte být přihlášen!
Pokud ještě nemáte zaregistrovaný účet, můžete se zaregistrovat.


07. 8 Miles And Runnin'
Obrázek
Pro zobrazení linků musíte být přihlášen!
Pokud ještě nemáte zaregistrovaný účet, můžete se zaregistrovat.


08. Spit Shine
Obrázek
Pro zobrazení linků musíte být přihlášen!
Pokud ještě nemáte zaregistrovaný účet, můžete se zaregistrovat.


09. Time Of My Life
Obrázek
Pro zobrazení linků musíte být přihlášen!
Pokud ještě nemáte zaregistrovaný účet, můžete se zaregistrovat.


10. U Wanna Be Me
Obrázek
Pro zobrazení linků musíte být přihlášen!
Pokud ještě nemáte zaregistrovaný účet, můžete se zaregistrovat.


11 - Miestny kovboj
Obrázek
Pro zobrazení linků musíte být přihlášen!
Pokud ještě nemáte zaregistrovaný účet, můžete se zaregistrovat.


11. Wanksta
Obrázek
Pro zobrazení linků musíte být přihlášen!
Pokud ještě nemáte zaregistrovaný účet, můžete se zaregistrovat.

_________________
Obrázek

Pro zobrazení linků musíte být přihlášen!
Pokud ještě nemáte zaregistrovaný účet, můžete se zaregistrovat.


Nahoru
 Profil  
 Předmět příspěvku: vyběrovky hip-hop,rap,techno,bluez atd ( 1980 - 2014) + dalši roky
PříspěvekNapsal: 22 čer 2017 06:43 
Palubní technik

Registrován: 05 zář 2014 20:01
Příspěvky: 928
Poděkoval: 4x
Poděkováno: 2x
W4A Money: 31590
Offline
12. Wasting My Time

Obrázek

kvalita

Citace:
General
Complete name : D:\up\1\12. Wasting My Time.flac
Format : FLAC
Format/Info : Free Lossless Audio Codec
File size : 21.4 MiB
Duration : 3 min 37 s
Overall bit rate mode : Variable
Overall bit rate : 825 kb/s
Album : 8 Mile
Album/Performer : Various
Track name : Wasting My Time
Track name/Position : 12
Performer : Boomkat (Taryn Manning)
Genre : Soundtrack
Recorded date : 2002
Comment : ExactAudioCopy v1.0b3

Audio
Format : FLAC
Format/Info : Free Lossless Audio Codec
Duration : 3 min 37 s
Bit rate mode : Variable
Bit rate : 825 kb/s
Channel(s) : 2 channels
Channel positions : Front: L R
Sampling rate : 44.1 kHz
Bit depth : 16 bits
Stream size : 21.4 MiB (100%)
Writing library : libFLAC 1.2.1 (UTC 2007-09-17)



download

Pro zobrazení linků musíte být přihlášen!
Pokud ještě nemáte zaregistrovaný účet, můžete se zaregistrovat.

_________________
Obrázek

Pro zobrazení linků musíte být přihlášen!
Pokud ještě nemáte zaregistrovaný účet, můžete se zaregistrovat.


Nahoru
 Profil  
 Předmět příspěvku: vyběrovky hip-hop,rap,techno,bluez atd ( 1980 - 2014) + dalši roky
PříspěvekNapsal: 22 čer 2017 06:49 
Palubní technik

Registrován: 05 zář 2014 20:01
Příspěvky: 928
Poděkoval: 4x
Poděkováno: 2x
W4A Money: 31590
Offline
13. R.A.K.I.M.
Obrázek

kvalita

Citace:
General
Complete name : D:\up\1\13. R.A.K.I.M..flac
Format : FLAC
Format/Info : Free Lossless Audio Codec
File size : 30.1 MiB
Duration : 4 min 23 s
Overall bit rate mode : Variable
Overall bit rate : 957 kb/s
Album : 8 Mile
Album/Performer : Various
Track name : R.A.K.I.M.
Track name/Position : 13
Performer : Rakim
Genre : Soundtrack
Recorded date : 2002
Comment : ExactAudioCopy v1.0b3

Audio
Format : FLAC
Format/Info : Free Lossless Audio Codec
Duration : 4 min 23 s
Bit rate mode : Variable
Bit rate : 957 kb/s
Channel(s) : 2 channels
Channel positions : Front: L R
Sampling rate : 44.1 kHz
Bit depth : 16 bits
Stream size : 30.1 MiB (100%)
Writing library : libFLAC 1.2.1 (UTC 2007-09-17)



download
Pro zobrazení linků musíte být přihlášen!
Pokud ještě nemáte zaregistrovaný účet, můžete se zaregistrovat.

_________________
Obrázek

Pro zobrazení linků musíte být přihlášen!
Pokud ještě nemáte zaregistrovaný účet, můžete se zaregistrovat.


Nahoru
 Profil  
 Předmět příspěvku: vyběrovky hip-hop,rap,techno,bluez atd ( 1980 - 2014) + dalši roky
PříspěvekNapsal: 22 čer 2017 06:59 
Palubní technik

Registrován: 05 zář 2014 20:01
Příspěvky: 928
Poděkoval: 4x
Poděkováno: 2x
W4A Money: 31590
Offline
14. That's My Nigga Fo' Real
Obrázek

kvalita
Citace:
General
Complete name : D:\up\1\14. That's My Nigga Fo' Real.flac
Format : FLAC
Format/Info : Free Lossless Audio Codec
File size : 29.8 MiB
Duration : 4 min 45 s
Overall bit rate mode : Variable
Overall bit rate : 875 kb/s
Album : 8 Mile
Album/Performer : Various
Track name : That's My Nigga Fo' Real
Track name/Position : 14
Performer : Young Zee
Genre : Soundtrack
Recorded date : 2002
Comment : ExactAudioCopy v1.0b3

Audio
Format : FLAC
Format/Info : Free Lossless Audio Codec
Duration : 4 min 45 s
Bit rate mode : Variable
Bit rate : 875 kb/s
Channel(s) : 2 channels
Channel positions : Front: L R
Sampling rate : 44.1 kHz
Bit depth : 16 bits
Stream size : 29.8 MiB (100%)
Writing library : libFLAC 1.2.1 (UTC 2007-09-17)



download
Pro zobrazení linků musíte být přihlášen!
Pokud ještě nemáte zaregistrovaný účet, můžete se zaregistrovat.

_________________
Obrázek

Pro zobrazení linků musíte být přihlášen!
Pokud ještě nemáte zaregistrovaný účet, můžete se zaregistrovat.


Nahoru
 Profil  
 Předmět příspěvku: vyběrovky hip-hop,rap,techno,bluez atd ( 1980 - 2014) + dalši roky
PříspěvekNapsal: 22 čer 2017 07:32 
Palubní technik

Registrován: 05 zář 2014 20:01
Příspěvky: 928
Poděkoval: 4x
Poděkováno: 2x
W4A Money: 31590
Offline
15. Battle
Obrázek

kvalita
Citace:
General
Complete name : D:\up\1\15. Battle.flac
Format : FLAC
Format/Info : Free Lossless Audio Codec
File size : 15.8 MiB
Duration : 2 min 56 s
Overall bit rate mode : Variable
Overall bit rate : 749 kb/s
Album : 8 Mile
Album/Performer : Various
Track name : Battle
Track name/Position : 15
Performer : Gangstarr
Genre : Soundtrack
Recorded date : 2002
Comment : ExactAudioCopy v1.0b3

Audio
Format : FLAC
Format/Info : Free Lossless Audio Codec
Duration : 2 min 56 s
Bit rate mode : Variable
Bit rate : 749 kb/s
Channel(s) : 2 channels
Channel positions : Front: L R
Sampling rate : 44.1 kHz
Bit depth : 16 bits
Stream size : 15.8 MiB (100%)
Writing library : libFLAC 1.2.1 (UTC 2007-09-17)


download
Pro zobrazení linků musíte být přihlášen!
Pokud ještě nemáte zaregistrovaný účet, můžete se zaregistrovat.

_________________
Obrázek

Pro zobrazení linků musíte být přihlášen!
Pokud ještě nemáte zaregistrovaný účet, můžete se zaregistrovat.


Nahoru
 Profil  
Zobrazit příspěvky za předchozí:  Seřadit podle  
Odpovědět na téma  [ Příspěvků: 84 ]  Přejít na stránku Předchozí  1, 2, 3, 4, 5, 6

Všechny časy jsou v UTC + 1 hodina


Kdo je online

Uživatelé procházející toto fórum: Žádní registrovaní uživatelé a 1 návštěvník



Nemůžete zakládat nová témata v tomto fóru
Nemůžete odpovídat v tomto fóru
Nemůžete upravovat své příspěvky v tomto fóru
Nemůžete mazat své příspěvky v tomto fóru
Nemůžete přikládat soubory v tomto fóru

Přejít na:  
cron

Time : 0.175s | 27 Queries | GZIP : Off

Filmy ke stažení zdarma | Cheaty | Pocket PC | Android | Windows Phone 7 | iGO 8 | Apple iPhone | Symbian Smartphone | ROM | Windows Mobile | BlackBerry | Palm | Java | Warez mobile forum