Právě je 19 čer 2018 20:54

Všechny časy jsou v UTC + 1 hodina



vyběrovky hip-hop,rap,techno,bluez atd ( 1980 - 2014) + dalši roky

[ Moderátorský panel ]



Odeslat nové téma Odpovědět na téma  [ Příspěvků: 206 ]  Přejít na stránku Předchozí  1 ... 10, 11, 12, 13, 14
Autor Zpráva
 Předmět příspěvku: vyběrovky hip-hop,rap,techno,bluez atd ( 1980 - 2014) + dalši roky
PříspěvekNapsal: 09 úno 2018 13:10 
Navigátor

Registrován: 05 zář 2014 20:01
Příspěvky: 1280
Poděkoval: 4x
Poděkováno: 5x
W4A Money: 50610
Offline
Faith No More - 06 - Mouth To Mouth

Obrázek



kvalita

Citace:
General
Complete name : D:\up1\Faith No More - 06 - Mouth To Mouth.mp3
Format : MPEG Audio
File size : 5.19 MiB
Duration : 3mn 46s
Overall bit rate mode : Constant
Overall bit rate : 192 Kbps
Album : Album Of The Year
Track name : Mouth To Mouth
Track name/Position : 06
Performer : Faith No More
Genre : Alternative
Recorded date : 1997
Writing library : LAME3.89 (alpha)

Audio
Format : MPEG Audio
Format version : Version 1
Format profile : Layer 3
Duration : 3mn 47s
Bit rate mode : Constant
Bit rate : 192 Kbps
Channel(s) : 2 channels
Sampling rate : 44.1 KHz
Compression mode : Lossy
Stream size : 5.19 MiB (100%)
Writing library : LAME3.89 (alpha)


download

Pro zobrazení linků musíte být přihlášen!
Pokud ještě nemáte zaregistrovaný účet, můžete se zaregistrovat.

_________________
Obrázek

Pro zobrazení linků musíte být přihlášen!
Pokud ještě nemáte zaregistrovaný účet, můžete se zaregistrovat.


Nahoru
 Profil  
 Předmět příspěvku: vyběrovky hip-hop,rap,techno,bluez atd ( 1980 - 2014) + dalši roky
PříspěvekNapsal: 13 úno 2018 17:48 
Navigátor

Registrován: 05 zář 2014 20:01
Příspěvky: 1280
Poděkoval: 4x
Poděkováno: 5x
W4A Money: 50610
Offline
Skeli - Ježíšku panáčku (320 kbps) (YouTube 2 MP3 Converter)

kvalita

Citace:
General
Complete name : D:\up1\Skeli - Ježíšku panáčku (320 kbps) (YouTube 2 MP3 Converter).mp3
Format : MPEG Audio
File size : 3.61 MiB
Duration : 3mn 9s
Overall bit rate mode : Constant
Overall bit rate : 160 Kbps
Writing library : LAME3.99.5
major_brand : mp42
minor_version : 0
compatible_brands : isommp42

Audio
Format : MPEG Audio
Format version : Version 2
Format profile : Layer 3
Duration : 3mn 9s
Bit rate mode : Constant
Bit rate : 160 Kbps
Channel(s) : 1 channel
Sampling rate : 22.05 KHz
Compression mode : Lossy
Stream size : 3.61 MiB (100%)
Writing library : LAME3.99.5


download

Pro zobrazení linků musíte být přihlášen!
Pokud ještě nemáte zaregistrovaný účet, můžete se zaregistrovat.


03 River of Life

Pro zobrazení linků musíte být přihlášen!
Pokud ještě nemáte zaregistrovaný účet, můžete se zaregistrovat.


09 The Princess Striga

Pro zobrazení linků musíte být přihlášen!
Pokud ještě nemáte zaregistrovaný účet, můžete se zaregistrovat.


13 An Ominous Place

Pro zobrazení linků musíte být přihlášen!
Pokud ještě nemáte zaregistrovaný účet, můžete se zaregistrovat.


Naposledy upravil warup dne 24 úno 2018 18:12, celkově upraveno 2

_________________
Obrázek

Pro zobrazení linků musíte být přihlášen!
Pokud ještě nemáte zaregistrovaný účet, můžete se zaregistrovat.


Nahoru
 Profil  
 Předmět příspěvku: vyběrovky hip-hop,rap,techno,bluez atd ( 1980 - 2014) + dalši roky
PříspěvekNapsal: 24 úno 2018 12:47 
Navigátor

Registrován: 05 zář 2014 20:01
Příspěvky: 1280
Poděkoval: 4x
Poděkováno: 5x
W4A Money: 50610
Offline
přidan odkaz

_________________
Obrázek

Pro zobrazení linků musíte být přihlášen!
Pokud ještě nemáte zaregistrovaný účet, můžete se zaregistrovat.


Nahoru
 Profil  
 Předmět příspěvku: vyběrovky hip-hop,rap,techno,bluez atd ( 1980 - 2014) + dalši roky
PříspěvekNapsal: 24 úno 2018 15:01 
Navigátor

Registrován: 05 zář 2014 20:01
Příspěvky: 1280
Poděkoval: 4x
Poděkováno: 5x
W4A Money: 50610
Offline
přidan odkaz

_________________
Obrázek

Pro zobrazení linků musíte být přihlášen!
Pokud ještě nemáte zaregistrovaný účet, můžete se zaregistrovat.


Nahoru
 Profil  
 Předmět příspěvku: vyběrovky hip-hop,rap,techno,bluez atd ( 1980 - 2014) + dalši roky
PříspěvekNapsal: 24 úno 2018 21:58 
Navigátor

Registrován: 05 zář 2014 20:01
Příspěvky: 1280
Poděkoval: 4x
Poděkováno: 5x
W4A Money: 50610
Offline
29 Kingdom & Betrayal

Obrázek



kvalita

Citace:
General
Complete name : D:\up1\1\29 Kingdom & Betrayal.mp3
Format : MPEG Audio
File size : 3.34 MiB
Duration : 1mn 48s
Overall bit rate mode : Constant
Overall bit rate : 256 Kbps
Album : The Witcher OST
Track name : Kingdom & Betrayal
Track name/Position : 29
Performer : Pawe³ B³aszczak, Adam Skorupa
Encoded by : Lavf52.32.0
Publisher : Atari
Genre : Game
Writing library : LAME3.98
Owner : Atari
Copyright : Atari
Cover : Yes
Cover description : The_Witcher_soundtrack
Cover MIME : image/jpg
Comment : http://www.gog.com
ID3v1 : http://www.gog.com

Audio
Format : MPEG Audio
Format version : Version 1
Format profile : Layer 3
Mode : Joint stereo
Duration : 1mn 48s
Bit rate mode : Constant
Bit rate : 256 Kbps
Channel(s) : 2 channels
Sampling rate : 44.1 KHz
Compression mode : Lossy
Stream size : 3.30 MiB (99%)
Writing library : LAME3.98


download

Pro zobrazení linků musíte být přihlášen!
Pokud ještě nemáte zaregistrovaný účet, můžete se zaregistrovat.

_________________
Obrázek

Pro zobrazení linků musíte být přihlášen!
Pokud ještě nemáte zaregistrovaný účet, můžete se zaregistrovat.


Nahoru
 Profil  
 Předmět příspěvku: vyběrovky hip-hop,rap,techno,bluez atd ( 1980 - 2014) + dalši roky
PříspěvekNapsal: 28 úno 2018 11:09 
Navigátor

Registrován: 05 zář 2014 20:01
Příspěvky: 1280
Poděkoval: 4x
Poděkováno: 5x
W4A Money: 50610
Offline
SharkaSs - Jedno Prani (official Videoclip)

Obrázek

kvalita

Citace:
General
Complete name : D:\up1\1\SharkaSs - Jedno Prani (official Videoclip).mp3
Format : MPEG Audio
File size : 7.46 MiB
Duration : 3mn 15s
Overall bit rate mode : Variable
Overall bit rate : 320 Kbps
Encoded date : UTC 2013-09- 4 17:37:52
Writing library : LAME3.98.4
major_brand : mp42
minor_version : 0
compatible_brands : isommp42

Audio
Format : MPEG Audio
Format version : Version 1
Format profile : Layer 3
Mode : Joint stereo
Duration : 3mn 15s
Bit rate mode : Variable
Bit rate : 320 Kbps
Channel(s) : 2 channels
Sampling rate : 44.1 KHz
Compression mode : Lossy
Stream size : 7.45 MiB (100%)
Writing library : LAME3.98.4


download

Pro zobrazení linků musíte být přihlášen!
Pokud ještě nemáte zaregistrovaný účet, můžete se zaregistrovat.

_________________
Obrázek

Pro zobrazení linků musíte být přihlášen!
Pokud ještě nemáte zaregistrovaný účet, můžete se zaregistrovat.


Nahoru
 Profil  
 Předmět příspěvku: vyběrovky hip-hop,rap,techno,bluez atd ( 1980 - 2014) + dalši roky
PříspěvekNapsal: 04 bře 2018 16:37 
Navigátor

Registrován: 05 zář 2014 20:01
Příspěvky: 1280
Poděkoval: 4x
Poděkováno: 5x
W4A Money: 50610
Offline
01 uz mi nevolej

Obrázek

kvalita

Citace:
General
Complete name : D:\up1\1\01 uz mi nevolej.mp3
Format : MPEG Audio
File size : 3.25 MiB
Duration : 3mn 32s
Overall bit rate mode : Constant
Overall bit rate : 128 Kbps
Album : S laskou
Track name : Uz mi nevolej
Track name/Position : 1
Performer : Holki
Genre : Other

Audio
Format : MPEG Audio
Format version : Version 1
Format profile : Layer 3
Duration : 3mn 33s
Bit rate mode : Constant
Bit rate : 128 Kbps
Channel(s) : 2 channels
Sampling rate : 44.1 KHz
Compression mode : Lossy
Stream size : 3.24 MiB (100%)



download

Pro zobrazení linků musíte být přihlášen!
Pokud ještě nemáte zaregistrovaný účet, můžete se zaregistrovat.

_________________
Obrázek

Pro zobrazení linků musíte být přihlášen!
Pokud ještě nemáte zaregistrovaný účet, můžete se zaregistrovat.


Nahoru
 Profil  
 Předmět příspěvku: vyběrovky hip-hop,rap,techno,bluez atd ( 1980 - 2014) + dalši roky
PříspěvekNapsal: 09 bře 2018 11:45 
Navigátor

Registrován: 05 zář 2014 20:01
Příspěvky: 1280
Poděkoval: 4x
Poděkováno: 5x
W4A Money: 50610
Offline
Nebolo to zle

Obrázek

kvalita

Citace:
General
Complete name : D:\up1\1\Nebolo to zle.mp3
Format : MPEG Audio
File size : 1.25 MiB
Duration : 54s 543ms
Overall bit rate mode : Constant
Overall bit rate : 192 Kbps
Album : Ritero Xaperle Bax
Track name/Position : 18
Track name/Total : 18
Performer : Nebolo to zlé
Genre : Rock
Recorded date : 2004
Writing library : LAME3.93
CDDB Disc ID : 0508DE12

Audio
Format : MPEG Audio
Format version : Version 1
Format profile : Layer 3
Mode : Joint stereo
Mode extension : MS Stereo
Duration : 54s 622ms
Bit rate mode : Constant
Bit rate : 192 Kbps
Channel(s) : 2 channels
Sampling rate : 44.1 KHz
Compression mode : Lossy
Stream size : 1.25 MiB (100%)
Writing library : LAME3.93


download

Pro zobrazení linků musíte být přihlášen!
Pokud ještě nemáte zaregistrovaný účet, můžete se zaregistrovat.


Spinavy HR Produkt

Pro zobrazení linků musíte být přihlášen!
Pokud ještě nemáte zaregistrovaný účet, můžete se zaregistrovat.


13. Bare Jr - You Blew Me Off

Pro zobrazení linků musíte být přihlášen!
Pokud ještě nemáte zaregistrovaný účet, můžete se zaregistrovat.


02. Fatboy Slim - Praise You

Pro zobrazení linků musíte být přihlášen!
Pokud ještě nemáte zaregistrovaný účet, můžete se zaregistrovat.


01. Placebo - Every You Every Me

Pro zobrazení linků musíte být přihlášen!
Pokud ještě nemáte zaregistrovaný účet, můžete se zaregistrovat.


03. Blur - Coffee & TV.

Pro zobrazení linků musíte být přihlášen!
Pokud ještě nemáte zaregistrovaný účet, můžete se zaregistrovat.


04. Day One - Bedroom Dancing

Pro zobrazení linků musíte být přihlášen!
Pokud ještě nemáte zaregistrovaný účet, můžete se zaregistrovat.


05. Counting Crows - Colorblind

Pro zobrazení linků musíte být přihlášen!
Pokud ještě nemáte zaregistrovaný účet, můžete se zaregistrovat.


06. Kristen Barry - Ordinary Life

Pro zobrazení linků musíte být přihlášen!
Pokud ještě nemáte zaregistrovaný účet, můžete se zaregistrovat.

_________________
Obrázek

Pro zobrazení linků musíte být přihlášen!
Pokud ještě nemáte zaregistrovaný účet, můžete se zaregistrovat.


Nahoru
 Profil  
 Předmět příspěvku: vyběrovky hip-hop,rap,techno,bluez atd ( 1980 - 2014) + dalši roky
PříspěvekNapsal: 10 bře 2018 21:16 
Navigátor

Registrován: 05 zář 2014 20:01
Příspěvky: 1280
Poděkoval: 4x
Poděkováno: 5x
W4A Money: 50610
Offline
07. Marcy Playground - Comin' Up From Behind

Pro zobrazení linků musíte být přihlášen!
Pokud ještě nemáte zaregistrovaný účet, můžete se zaregistrovat.


08. Skunk Anansie - Secretly

Pro zobrazení linků musíte být přihlášen!
Pokud ještě nemáte zaregistrovaný účet, můžete se zaregistrovat.


09. Craig Armstrong - This Love

Pro zobrazení linků musíte být přihlášen!
Pokud ještě nemáte zaregistrovaný účet, můžete se zaregistrovat.


10. Aimee Mann - You Could Make A Killing

Pro zobrazení linků musíte být přihlášen!
Pokud ještě nemáte zaregistrovaný účet, můžete se zaregistrovat.


11. Faithless - Addictive

Pro zobrazení linků musíte být přihlášen!
Pokud ještě nemáte zaregistrovaný účet, můžete se zaregistrovat.


12. Abra Moore - Trip On Love

Pro zobrazení linků musíte být přihlášen!
Pokud ještě nemáte zaregistrovaný účet, můžete se zaregistrovat.


14. The Verve - Bitter Sweet Symphony

Pro zobrazení linků musíte být přihlášen!
Pokud ještě nemáte zaregistrovaný účet, můžete se zaregistrovat.

_________________
Obrázek

Pro zobrazení linků musíte být přihlášen!
Pokud ještě nemáte zaregistrovaný účet, můžete se zaregistrovat.


Nahoru
 Profil  
 Předmět příspěvku: vyběrovky hip-hop,rap,techno,bluez atd ( 1980 - 2014) + dalši roky
PříspěvekNapsal: 13 bře 2018 12:59 
Navigátor

Registrován: 05 zář 2014 20:01
Příspěvky: 1280
Poděkoval: 4x
Poděkováno: 5x
W4A Money: 50610
Offline
Padouch - Srdce a rozum acapella

Pro zobrazení linků musíte být přihlášen!
Pokud ještě nemáte zaregistrovaný účet, můžete se zaregistrovat.


TANCUJ-Elmo & Marcus & Stewe ( Drums-Franc-ZakazanYovoce)

Pro zobrazení linků musíte být přihlášen!
Pokud ještě nemáte zaregistrovaný účet, můžete se zaregistrovat.

_________________
Obrázek

Pro zobrazení linků musíte být přihlášen!
Pokud ještě nemáte zaregistrovaný účet, můžete se zaregistrovat.


Nahoru
 Profil  
 Předmět příspěvku: vyběrovky hip-hop,rap,techno,bluez atd ( 1980 - 2014) + dalši roky
PříspěvekNapsal: 27 bře 2018 14:45 
Navigátor

Registrován: 05 zář 2014 20:01
Příspěvky: 1280
Poděkoval: 4x
Poděkováno: 5x
W4A Money: 50610
Offline
Pro zobrazení linků musíte být přihlášen!
Pokud ještě nemáte zaregistrovaný účet, můžete se zaregistrovat.

_________________
Obrázek

Pro zobrazení linků musíte být přihlášen!
Pokud ještě nemáte zaregistrovaný účet, můžete se zaregistrovat.


Nahoru
 Profil  
Zobrazit příspěvky za předchozí:  Seřadit podle  
Odpovědět na téma  [ Příspěvků: 206 ]  Přejít na stránku Předchozí  1 ... 10, 11, 12, 13, 14

Všechny časy jsou v UTC + 1 hodina


Kdo je online

Uživatelé procházející toto fórum: Žádní registrovaní uživatelé a 1 návštěvník



Nemůžete zakládat nová témata v tomto fóru
Nemůžete odpovídat v tomto fóru
Nemůžete upravovat své příspěvky v tomto fóru
Nemůžete mazat své příspěvky v tomto fóru
Nemůžete přikládat soubory v tomto fóru

Přejít na:  

Time : 0.158s | 29 Queries | GZIP : Off

Filmy ke stažení zdarma | Cheaty | Pocket PC | Android | Windows Phone 7 | iGO 8 | Apple iPhone | Symbian Smartphone | ROM | Windows Mobile | BlackBerry | Palm | Java | Warez mobile forum