Právě je 24 úno 2018 20:58

Všechny časy jsou v UTC + 1 hodina



vyběrovky hip-hop,rap,techno,bluez atd ( 1980 - 2014) + dalši roky

[ Moderátorský panel ]



Odeslat nové téma Odpovědět na téma  [ Příspěvků: 199 ]  Přejít na stránku Předchozí  1 ... 10, 11, 12, 13, 14
Autor Zpráva
 Předmět příspěvku: vyběrovky hip-hop,rap,techno,bluez atd ( 1980 - 2014) + dalši roky
PříspěvekNapsal: 09 úno 2018 13:10 
Navigátor

Registrován: 05 zář 2014 20:01
Příspěvky: 1267
Poděkoval: 4x
Poděkováno: 4x
W4A Money: 49485
Offline
Faith No More - 06 - Mouth To Mouth

Obrázek



kvalita

Citace:
General
Complete name : D:\up1\Faith No More - 06 - Mouth To Mouth.mp3
Format : MPEG Audio
File size : 5.19 MiB
Duration : 3mn 46s
Overall bit rate mode : Constant
Overall bit rate : 192 Kbps
Album : Album Of The Year
Track name : Mouth To Mouth
Track name/Position : 06
Performer : Faith No More
Genre : Alternative
Recorded date : 1997
Writing library : LAME3.89 (alpha)

Audio
Format : MPEG Audio
Format version : Version 1
Format profile : Layer 3
Duration : 3mn 47s
Bit rate mode : Constant
Bit rate : 192 Kbps
Channel(s) : 2 channels
Sampling rate : 44.1 KHz
Compression mode : Lossy
Stream size : 5.19 MiB (100%)
Writing library : LAME3.89 (alpha)


download

Pro zobrazení linků musíte být přihlášen!
Pokud ještě nemáte zaregistrovaný účet, můžete se zaregistrovat.

_________________
Obrázek

Pro zobrazení linků musíte být přihlášen!
Pokud ještě nemáte zaregistrovaný účet, můžete se zaregistrovat.


Nahoru
 Profil  
 Předmět příspěvku: vyběrovky hip-hop,rap,techno,bluez atd ( 1980 - 2014) + dalši roky
PříspěvekNapsal: 13 úno 2018 17:48 
Navigátor

Registrován: 05 zář 2014 20:01
Příspěvky: 1267
Poděkoval: 4x
Poděkováno: 4x
W4A Money: 49485
Offline
Skeli - Ježíšku panáčku (320 kbps) (YouTube 2 MP3 Converter)

kvalita

Citace:
General
Complete name : D:\up1\Skeli - Ježíšku panáčku (320 kbps) (YouTube 2 MP3 Converter).mp3
Format : MPEG Audio
File size : 3.61 MiB
Duration : 3mn 9s
Overall bit rate mode : Constant
Overall bit rate : 160 Kbps
Writing library : LAME3.99.5
major_brand : mp42
minor_version : 0
compatible_brands : isommp42

Audio
Format : MPEG Audio
Format version : Version 2
Format profile : Layer 3
Duration : 3mn 9s
Bit rate mode : Constant
Bit rate : 160 Kbps
Channel(s) : 1 channel
Sampling rate : 22.05 KHz
Compression mode : Lossy
Stream size : 3.61 MiB (100%)
Writing library : LAME3.99.5


download

Pro zobrazení linků musíte být přihlášen!
Pokud ještě nemáte zaregistrovaný účet, můžete se zaregistrovat.


03 River of Life

Pro zobrazení linků musíte být přihlášen!
Pokud ještě nemáte zaregistrovaný účet, můžete se zaregistrovat.


09 The Princess Striga

Pro zobrazení linků musíte být přihlášen!
Pokud ještě nemáte zaregistrovaný účet, můžete se zaregistrovat.


13 An Ominous Place

Pro zobrazení linků musíte být přihlášen!
Pokud ještě nemáte zaregistrovaný účet, můžete se zaregistrovat.


Naposledy upravil warup dne 24 úno 2018 18:12, celkově upraveno 2

_________________
Obrázek

Pro zobrazení linků musíte být přihlášen!
Pokud ještě nemáte zaregistrovaný účet, můžete se zaregistrovat.


Nahoru
 Profil  
 Předmět příspěvku: vyběrovky hip-hop,rap,techno,bluez atd ( 1980 - 2014) + dalši roky
PříspěvekNapsal: dnes, 12:47 
Navigátor

Registrován: 05 zář 2014 20:01
Příspěvky: 1267
Poděkoval: 4x
Poděkováno: 4x
W4A Money: 49485
Offline
přidan odkaz

_________________
Obrázek

Pro zobrazení linků musíte být přihlášen!
Pokud ještě nemáte zaregistrovaný účet, můžete se zaregistrovat.


Nahoru
 Profil  
 Předmět příspěvku: vyběrovky hip-hop,rap,techno,bluez atd ( 1980 - 2014) + dalši roky
PříspěvekNapsal: dnes, 15:01 
Navigátor

Registrován: 05 zář 2014 20:01
Příspěvky: 1267
Poděkoval: 4x
Poděkováno: 4x
W4A Money: 49485
Offline
přidan odkaz

_________________
Obrázek

Pro zobrazení linků musíte být přihlášen!
Pokud ještě nemáte zaregistrovaný účet, můžete se zaregistrovat.


Nahoru
 Profil  
Zobrazit příspěvky za předchozí:  Seřadit podle  
Odpovědět na téma  [ Příspěvků: 199 ]  Přejít na stránku Předchozí  1 ... 10, 11, 12, 13, 14

Všechny časy jsou v UTC + 1 hodina


Kdo je online

Uživatelé procházející toto fórum: Žádní registrovaní uživatelé a 1 návštěvník



Nemůžete zakládat nová témata v tomto fóru
Nemůžete odpovídat v tomto fóru
Nemůžete upravovat své příspěvky v tomto fóru
Nemůžete mazat své příspěvky v tomto fóru
Nemůžete přikládat soubory v tomto fóru

Přejít na:  

Time : 0.096s | 20 Queries | GZIP : Off

Filmy ke stažení zdarma | Cheaty | Pocket PC | Android | Windows Phone 7 | iGO 8 | Apple iPhone | Symbian Smartphone | ROM | Windows Mobile | BlackBerry | Palm | Java | Warez mobile forum