vyběrovky hip-hop,rap,techno,bluez atd ( 1980 - 2014) + dalši roky

Jednotlivé songy, FTP atp...

Moderátoři: sedum, pepislaf

Odpovědět
warup
Navigátor
Navigátor
Příspěvky: 1285
Registrován: 05 zář 2014 21:01
Dal poděkování: 2 poděkování
Dostal poděkování: 1 poděkování

vyběrovky hip-hop,rap,techno,bluez atd ( 1980 - 2014) + dalši roky

Příspěvek od warup » 09 úno 2018 13:10

Faith No More - 06 - Mouth To Mouth

Obrázek



kvalita
General
Complete name : D:\up1\Faith No More - 06 - Mouth To Mouth.mp3
Format : MPEG Audio
File size : 5.19 MiB
Duration : 3mn 46s
Overall bit rate mode : Constant
Overall bit rate : 192 Kbps
Album : Album Of The Year
Track name : Mouth To Mouth
Track name/Position : 06
Performer : Faith No More
Genre : Alternative
Recorded date : 1997
Writing library : LAME3.89 (alpha)

Audio
Format : MPEG Audio
Format version : Version 1
Format profile : Layer 3
Duration : 3mn 47s
Bit rate mode : Constant
Bit rate : 192 Kbps
Channel(s) : 2 channels
Sampling rate : 44.1 KHz
Compression mode : Lossy
Stream size : 5.19 MiB (100%)
Writing library : LAME3.89 (alpha)
download

Kód: Vybrat vše

http://fastshare.cz/8653472/faith-no-more-06-mouth-to-mouth.mp3
Obrázek

Kód: Vybrat vše

http://datoid.cz/?p=143827  
warup
Navigátor
Navigátor
Příspěvky: 1285
Registrován: 05 zář 2014 21:01
Dal poděkování: 2 poděkování
Dostal poděkování: 1 poděkování

vyběrovky hip-hop,rap,techno,bluez atd ( 1980 - 2014) + dalši roky

Příspěvek od warup » 13 úno 2018 17:48

Skeli - Ježíšku panáčku (320 kbps) (YouTube 2 MP3 Converter)

kvalita
General
Complete name : D:\up1\Skeli - Ježíšku panáčku (320 kbps) (YouTube 2 MP3 Converter).mp3
Format : MPEG Audio
File size : 3.61 MiB
Duration : 3mn 9s
Overall bit rate mode : Constant
Overall bit rate : 160 Kbps
Writing library : LAME3.99.5
major_brand : mp42
minor_version : 0
compatible_brands : isommp42

Audio
Format : MPEG Audio
Format version : Version 2
Format profile : Layer 3
Duration : 3mn 9s
Bit rate mode : Constant
Bit rate : 160 Kbps
Channel(s) : 1 channel
Sampling rate : 22.05 KHz
Compression mode : Lossy
Stream size : 3.61 MiB (100%)
Writing library : LAME3.99.5
download

Kód: Vybrat vše

https://uloz.to/!oXGYIJDMiE5W/skeli-jezisku-panacku-320-kbps-youtube-2-mp3-converter-mp3
03 River of Life

Kód: Vybrat vše

https://uloz.to/!R518r3Y4updy/03-river-of-life-mp3
09 The Princess Striga

Kód: Vybrat vše

https://uloz.to/!FLSxzdF8fDCG/09-the-princess-striga-mp3
13 An Ominous Place

Kód: Vybrat vše

https://uloz.to/!AEYLzXTPVh2N/13-an-ominous-place-mp3
Naposledy upravil(a) warup dne 24 úno 2018 18:12, celkem upraveno 2 x.
Obrázek

Kód: Vybrat vše

http://datoid.cz/?p=143827  
warup
Navigátor
Navigátor
Příspěvky: 1285
Registrován: 05 zář 2014 21:01
Dal poděkování: 2 poděkování
Dostal poděkování: 1 poděkování

vyběrovky hip-hop,rap,techno,bluez atd ( 1980 - 2014) + dalši roky

Příspěvek od warup » 24 úno 2018 12:47

přidan odkaz
Obrázek

Kód: Vybrat vše

http://datoid.cz/?p=143827  
warup
Navigátor
Navigátor
Příspěvky: 1285
Registrován: 05 zář 2014 21:01
Dal poděkování: 2 poděkování
Dostal poděkování: 1 poděkování

vyběrovky hip-hop,rap,techno,bluez atd ( 1980 - 2014) + dalši roky

Příspěvek od warup » 24 úno 2018 15:01

přidan odkaz
Obrázek

Kód: Vybrat vše

http://datoid.cz/?p=143827  
warup
Navigátor
Navigátor
Příspěvky: 1285
Registrován: 05 zář 2014 21:01
Dal poděkování: 2 poděkování
Dostal poděkování: 1 poděkování

vyběrovky hip-hop,rap,techno,bluez atd ( 1980 - 2014) + dalši roky

Příspěvek od warup » 24 úno 2018 21:58

29 Kingdom & Betrayal

Obrázek



kvalita
General
Complete name : D:\up1\1\29 Kingdom & Betrayal.mp3
Format : MPEG Audio
File size : 3.34 MiB
Duration : 1mn 48s
Overall bit rate mode : Constant
Overall bit rate : 256 Kbps
Album : The Witcher OST
Track name : Kingdom & Betrayal
Track name/Position : 29
Performer : Pawe³ B³aszczak, Adam Skorupa
Encoded by : Lavf52.32.0
Publisher : Atari
Genre : Game
Writing library : LAME3.98
Owner : Atari
Copyright : Atari
Cover : Yes
Cover description : The_Witcher_soundtrack
Cover MIME : image/jpg
Comment : http://www.gog.com
ID3v1 : http://www.gog.com

Audio
Format : MPEG Audio
Format version : Version 1
Format profile : Layer 3
Mode : Joint stereo
Duration : 1mn 48s
Bit rate mode : Constant
Bit rate : 256 Kbps
Channel(s) : 2 channels
Sampling rate : 44.1 KHz
Compression mode : Lossy
Stream size : 3.30 MiB (99%)
Writing library : LAME3.98
download

Kód: Vybrat vše

https://uloz.to/!X1wGhnYWy3ag/29-kingdom-betrayal-mp3
Obrázek

Kód: Vybrat vše

http://datoid.cz/?p=143827  
warup
Navigátor
Navigátor
Příspěvky: 1285
Registrován: 05 zář 2014 21:01
Dal poděkování: 2 poděkování
Dostal poděkování: 1 poděkování

vyběrovky hip-hop,rap,techno,bluez atd ( 1980 - 2014) + dalši roky

Příspěvek od warup » 28 úno 2018 11:09

SharkaSs - Jedno Prani (official Videoclip)

Obrázek

kvalita
General
Complete name : D:\up1\1\SharkaSs - Jedno Prani (official Videoclip).mp3
Format : MPEG Audio
File size : 7.46 MiB
Duration : 3mn 15s
Overall bit rate mode : Variable
Overall bit rate : 320 Kbps
Encoded date : UTC 2013-09- 4 17:37:52
Writing library : LAME3.98.4
major_brand : mp42
minor_version : 0
compatible_brands : isommp42

Audio
Format : MPEG Audio
Format version : Version 1
Format profile : Layer 3
Mode : Joint stereo
Duration : 3mn 15s
Bit rate mode : Variable
Bit rate : 320 Kbps
Channel(s) : 2 channels
Sampling rate : 44.1 KHz
Compression mode : Lossy
Stream size : 7.45 MiB (100%)
Writing library : LAME3.98.4
download

Kód: Vybrat vše

https://uloz.to/!M6paTb62Vwq1/sharkass-jedno-prani-official-videoclip-mp3
Obrázek

Kód: Vybrat vše

http://datoid.cz/?p=143827  
warup
Navigátor
Navigátor
Příspěvky: 1285
Registrován: 05 zář 2014 21:01
Dal poděkování: 2 poděkování
Dostal poděkování: 1 poděkování

vyběrovky hip-hop,rap,techno,bluez atd ( 1980 - 2014) + dalši roky

Příspěvek od warup » 04 bře 2018 16:37

01 uz mi nevolej

Obrázek

kvalita
General
Complete name : D:\up1\1\01 uz mi nevolej.mp3
Format : MPEG Audio
File size : 3.25 MiB
Duration : 3mn 32s
Overall bit rate mode : Constant
Overall bit rate : 128 Kbps
Album : S laskou
Track name : Uz mi nevolej
Track name/Position : 1
Performer : Holki
Genre : Other

Audio
Format : MPEG Audio
Format version : Version 1
Format profile : Layer 3
Duration : 3mn 33s
Bit rate mode : Constant
Bit rate : 128 Kbps
Channel(s) : 2 channels
Sampling rate : 44.1 KHz
Compression mode : Lossy
Stream size : 3.24 MiB (100%)
download

Kód: Vybrat vše

https://uloz.to/!snKmw18PqUMo/01-uz-mi-nevolej-mp3
Obrázek

Kód: Vybrat vše

http://datoid.cz/?p=143827  
warup
Navigátor
Navigátor
Příspěvky: 1285
Registrován: 05 zář 2014 21:01
Dal poděkování: 2 poděkování
Dostal poděkování: 1 poděkování

vyběrovky hip-hop,rap,techno,bluez atd ( 1980 - 2014) + dalši roky

Příspěvek od warup » 09 bře 2018 11:45

Nebolo to zle

Obrázek

kvalita
General
Complete name : D:\up1\1\Nebolo to zle.mp3
Format : MPEG Audio
File size : 1.25 MiB
Duration : 54s 543ms
Overall bit rate mode : Constant
Overall bit rate : 192 Kbps
Album : Ritero Xaperle Bax
Track name/Position : 18
Track name/Total : 18
Performer : Nebolo to zlé
Genre : Rock
Recorded date : 2004
Writing library : LAME3.93
CDDB Disc ID : 0508DE12

Audio
Format : MPEG Audio
Format version : Version 1
Format profile : Layer 3
Mode : Joint stereo
Mode extension : MS Stereo
Duration : 54s 622ms
Bit rate mode : Constant
Bit rate : 192 Kbps
Channel(s) : 2 channels
Sampling rate : 44.1 KHz
Compression mode : Lossy
Stream size : 1.25 MiB (100%)
Writing library : LAME3.93
download

Kód: Vybrat vše

https://uloz.to/!CVRqC4OiBZ5o/nebolo-to-zle-mp3
Spinavy HR Produkt

Kód: Vybrat vše

http://www.netshare.cz/971cf5642ffdacd7/Spinavy_HR_Produkt.wav
13. Bare Jr - You Blew Me Off

Kód: Vybrat vše

http://www.netshare.cz/740a6c8a84f93504/13._Bare_Jr_-_You_Blew_Me_Off.mp3
02. Fatboy Slim - Praise You

Kód: Vybrat vše

http://www.netshare.cz/d1f7b2c6720fe1fd/02._Fatboy_Slim_-_Praise_You.mp3
01. Placebo - Every You Every Me

Kód: Vybrat vše

http://www.netshare.cz/49e8443113847d94/01._Placebo_-_Every_You_Every_Me.mp3
03. Blur - Coffee & TV.

Kód: Vybrat vše

http://www.netshare.cz/ed11b2b6ef752272/03._Blur_-_Coffee_&_TV.mp3
04. Day One - Bedroom Dancing

Kód: Vybrat vše

http://www.netshare.cz/c7781b6ba7029956/04._Day_One_-_Bedroom_Dancing.mp3
05. Counting Crows - Colorblind

Kód: Vybrat vše

http://www.netshare.cz/9a1895e5937a5398/05._Counting_Crows_-_Colorblind.mp3
06. Kristen Barry - Ordinary Life

Kód: Vybrat vše

http://www.netshare.cz/f87619ebc9bd2751/06._Kristen_Barry_-_Ordinary_Life.mp3
Obrázek

Kód: Vybrat vše

http://datoid.cz/?p=143827  
warup
Navigátor
Navigátor
Příspěvky: 1285
Registrován: 05 zář 2014 21:01
Dal poděkování: 2 poděkování
Dostal poděkování: 1 poděkování

vyběrovky hip-hop,rap,techno,bluez atd ( 1980 - 2014) + dalši roky

Příspěvek od warup » 10 bře 2018 21:16

07. Marcy Playground - Comin' Up From Behind

Kód: Vybrat vše

http://www.netshare.cz/f155d6f7453f925b/07._Marcy_Playground_-_Comin__Up_From_Behind.mp3
08. Skunk Anansie - Secretly

Kód: Vybrat vše

http://www.netshare.cz/f9f09a35ca4e1056/08._Skunk_Anansie_-_Secretly.mp3
09. Craig Armstrong - This Love

Kód: Vybrat vše

http://www.netshare.cz/9ba4d442843e342c/09._Craig_Armstrong_-_This_Love.mp3
10. Aimee Mann - You Could Make A Killing

Kód: Vybrat vše

http://www.netshare.cz/8f36d9913092dabd/10._Aimee_Mann_-_You_Could_Make_A_Killing.mp3
11. Faithless - Addictive

Kód: Vybrat vše

http://www.netshare.cz/69e973b623ed2726/11._Faithless_-_Addictive.mp3
12. Abra Moore - Trip On Love

Kód: Vybrat vše

http://www.netshare.cz/3f9ab4ded28afabc/12._Abra_Moore_-_Trip_On_Love.mp3
14. The Verve - Bitter Sweet Symphony

Kód: Vybrat vše

http://www.netshare.cz/05ca08be7140c1ab/14._The_Verve_-_Bitter_Sweet_Symphony.mp3
Obrázek

Kód: Vybrat vše

http://datoid.cz/?p=143827  
warup
Navigátor
Navigátor
Příspěvky: 1285
Registrován: 05 zář 2014 21:01
Dal poděkování: 2 poděkování
Dostal poděkování: 1 poděkování

vyběrovky hip-hop,rap,techno,bluez atd ( 1980 - 2014) + dalši roky

Příspěvek od warup » 13 bře 2018 12:59

Padouch - Srdce a rozum acapella

Kód: Vybrat vše

http://www.netshare.cz/13c6871ccc002ab1/Padouch_-_Srdce_a_rozum_acapella.mp3
TANCUJ-Elmo & Marcus & Stewe ( Drums-Franc-ZakazanYovoce)

Kód: Vybrat vše

http://www.netshare.cz/50a32a8e3d05f685/TANCUJ-Elmo_&_Marcus_&_Stewe_(_Drums-Franc-ZakazanYovoce).mp3
Obrázek

Kód: Vybrat vše

http://datoid.cz/?p=143827  
warup
Navigátor
Navigátor
Příspěvky: 1285
Registrován: 05 zář 2014 21:01
Dal poděkování: 2 poděkování
Dostal poděkování: 1 poděkování

vyběrovky hip-hop,rap,techno,bluez atd ( 1980 - 2014) + dalši roky

Příspěvek od warup » 27 bře 2018 15:45

Kód: Vybrat vše

http://4bigbox.com/newfile?n=11191814&05 Pick Up the Phone.mp3
https://1fichier.com/?d5xir6h76h
https://alterupload.com/?x2ss7u3c6v
https://cjoint.net/?av4fbmjcpq
https://desfichiers.com/?k6lsah0wbv
https://dfichiers.com/?v36uc33c7v
https://megadl.fr/?jgb4tnj3eg
https://mesfichiers.org/?6owikpizjy
https://piecejointe.net/?b6ecp0ztuc
https://pjointe.com/?jouit3fyat
https://tenvoi.com/?f2xmh46cbg
https://dl4free.com/?prxepu821j
http://3zfile.net/uw9wu16u9k8p.html
http://4bigbox.com/newfile?n=11191968&method_man-john_3_16-wutangcorp.mp3
https://4downfiles.org/rppjkccacejl
https://www.4shared.com/mp3/JD4rkb0xei/Protiva_-_Nejdu_back.html
https://www.4shared.com/mp3/5EiHlEhOei/Protiva_-_Restart.html
https://www.4sync.com/mp3/hhq7tw3O/PSH-3__1_.html
https://9xupload.me/12dumhpw053k
http://upfile.mobi/Z1SANk1KFqA
http://addfile.org/9HaaYt7qvWg
http://qtfile.com/iTi6Z00Uu8s
http://9files.co/ns0HctrffzZ
Obrázek

Kód: Vybrat vše

http://datoid.cz/?p=143827  
Odpovědět

Zpět na „Nezařaditelné“