Právě je 19 čer 2018 20:58

Všechny časy jsou v UTC + 1 hodina



hudba - mp3 - vyber

[ Moderátorský panel ]



Odeslat nové téma Odpovědět na téma  [ Příspěvků: 53 ]  Přejít na stránku Předchozí  1, 2, 3, 4
Autor Zpráva
 Předmět příspěvku: hudba - mp3 - vyber
PříspěvekNapsal: 02 led 2018 22:39 
Navigátor

Registrován: 05 zář 2014 20:01
Příspěvky: 1280
Poděkoval: 4x
Poděkováno: 5x
W4A Money: 50610
Offline
Pro zobrazení linků musíte být přihlášen!
Pokud ještě nemáte zaregistrovaný účet, můžete se zaregistrovat.

_________________
Obrázek

Pro zobrazení linků musíte být přihlášen!
Pokud ještě nemáte zaregistrovaný účet, můžete se zaregistrovat.


Nahoru
 Profil  
 Předmět příspěvku: hudba - mp3 - vyber
PříspěvekNapsal: 14 úno 2018 13:27 
Navigátor

Registrován: 05 zář 2014 20:01
Příspěvky: 1280
Poděkoval: 4x
Poděkováno: 5x
W4A Money: 50610
Offline
Johny Machette - Stačí Mi To Nejlepší

Obrázek



kvalita

Citace:
General
Complete name : D:\up\Johny Machette - Stačí Mi To Nejlepší.mp3
Format : MPEG Audio
File size : 6.53 MiB
Duration : 2mn 51s
Overall bit rate mode : Variable
Overall bit rate : 320 Kbps
Encoded date : UTC 2013-08- 9 08:53:47
Writing library : LAME3.98.4
major_brand : mp42
minor_version : 0
compatible_brands : isommp42

Audio
Format : MPEG Audio
Format version : Version 1
Format profile : Layer 3
Mode : Joint stereo
Mode extension : MS Stereo
Duration : 2mn 51s
Bit rate mode : Variable
Bit rate : 320 Kbps
Channel(s) : 2 channels
Sampling rate : 44.1 KHz
Compression mode : Lossy
Stream size : 6.53 MiB (100%)
Writing library : LAME3.98.4


download

Pro zobrazení linků musíte být přihlášen!
Pokud ještě nemáte zaregistrovaný účet, můžete se zaregistrovat.


05 Dead City

Pro zobrazení linků musíte být přihlášen!
Pokud ještě nemáte zaregistrovaný účet, můžete se zaregistrovat.


12 Peaceful Moments

Pro zobrazení linků musíte být přihlášen!
Pokud ještě nemáte zaregistrovaný účet, můžete se zaregistrovat.


15 The Order

Pro zobrazení linků musíte být přihlášen!
Pokud ještě nemáte zaregistrovaný účet, můžete se zaregistrovat.


21 The Lesser of Two Evils


Pro zobrazení linků musíte být přihlášen!
Pokud ještě nemáte zaregistrovaný účet, můžete se zaregistrovat.


24 The Dike

Pro zobrazení linků musíte být přihlášen!
Pokud ještě nemáte zaregistrovaný účet, můžete se zaregistrovat.


Naposledy upravil warup dne 24 úno 2018 20:27, celkově upraveno 4

_________________
Obrázek

Pro zobrazení linků musíte být přihlášen!
Pokud ještě nemáte zaregistrovaný účet, můžete se zaregistrovat.


Nahoru
 Profil  
 Předmět příspěvku: hudba - mp3 - vyber
PříspěvekNapsal: 24 úno 2018 13:20 
Navigátor

Registrován: 05 zář 2014 20:01
Příspěvky: 1280
Poděkoval: 4x
Poděkováno: 5x
W4A Money: 50610
Offline
přidan odkaz

_________________
Obrázek

Pro zobrazení linků musíte být přihlášen!
Pokud ještě nemáte zaregistrovaný účet, můžete se zaregistrovat.


Nahoru
 Profil  
 Předmět příspěvku: hudba - mp3 - vyber
PříspěvekNapsal: 24 úno 2018 17:50 
Navigátor

Registrován: 05 zář 2014 20:01
Příspěvky: 1280
Poděkoval: 4x
Poděkováno: 5x
W4A Money: 50610
Offline
přidan dalši song

_________________
Obrázek

Pro zobrazení linků musíte být přihlášen!
Pokud ještě nemáte zaregistrovaný účet, můžete se zaregistrovat.


Nahoru
 Profil  
 Předmět příspěvku: hudba - mp3 - vyber
PříspěvekNapsal: 26 úno 2018 12:56 
Navigátor

Registrován: 05 zář 2014 20:01
Příspěvky: 1280
Poděkoval: 4x
Poděkováno: 5x
W4A Money: 50610
Offline
Eminem - White Trash Party

Obrázek

lyrics

Pro zobrazení linků musíte být přihlášen!
Pokud ještě nemáte zaregistrovaný účet, můžete se zaregistrovat.




kvalita

Citace:
General
Complete name : D:\up1\1\Eminem - White Trash Party.mp3
Format : MPEG Audio
File size : 9.82 MiB
Duration : 4mn 17s
Overall bit rate mode : Variable
Overall bit rate : 320 Kbps
Encoded date : UTC 2011-05- 6 18:42:24
Writing library : LAME3.98.4
major_brand : mp42
minor_version : 0
compatible_brands : isommp42

Audio
Format : MPEG Audio
Format version : Version 1
Format profile : Layer 3
Mode : Joint stereo
Mode extension : MS Stereo
Duration : 4mn 17s
Bit rate mode : Variable
Bit rate : 320 Kbps
Channel(s) : 2 channels
Sampling rate : 44.1 KHz
Compression mode : Lossy
Stream size : 9.82 MiB (100%)
Writing library : LAME3.98.4


download

Pro zobrazení linků musíte být přihlášen!
Pokud ještě nemáte zaregistrovaný účet, můžete se zaregistrovat.

_________________
Obrázek

Pro zobrazení linků musíte být přihlášen!
Pokud ještě nemáte zaregistrovaný účet, můžete se zaregistrovat.


Nahoru
 Profil  
 Předmět příspěvku: hudba - mp3 - vyber
PříspěvekNapsal: 02 bře 2018 09:10 
Navigátor

Registrován: 05 zář 2014 20:01
Příspěvky: 1280
Poděkoval: 4x
Poděkováno: 5x
W4A Money: 50610
Offline
Tafrob - Oskar (prod. Emeres)

Obrázek

kvalita

Citace:
General
Complete name : D:\up1\1\Tafrob - Oskar (prod. Emeres).mp3
Format : MPEG Audio
File size : 7.43 MiB
Duration : 3mn 14s
Overall bit rate mode : Variable
Overall bit rate : 320 Kbps
Album : aaa
Encoded date : UTC 2013-06- 2 00:29:06
Writing library : LAME3.98.4
major_brand : mp42
minor_version : 0
compatible_brands : isommp42

Audio
Format : MPEG Audio
Format version : Version 1
Format profile : Layer 3
Mode : Joint stereo
Duration : 3mn 14s
Bit rate mode : Variable
Bit rate : 320 Kbps
Channel(s) : 2 channels
Sampling rate : 44.1 KHz
Compression mode : Lossy
Stream size : 7.42 MiB (100%)
Writing library : LAME3.98.4


download

Pro zobrazení linků musíte být přihlášen!
Pokud ještě nemáte zaregistrovaný účet, můžete se zaregistrovat.

_________________
Obrázek

Pro zobrazení linků musíte být přihlášen!
Pokud ještě nemáte zaregistrovaný účet, můžete se zaregistrovat.


Nahoru
 Profil  
 Předmět příspěvku: hudba - mp3 - vyber
PříspěvekNapsal: 04 bře 2018 16:56 
Navigátor

Registrován: 05 zář 2014 20:01
Příspěvky: 1280
Poděkoval: 4x
Poděkováno: 5x
W4A Money: 50610
Offline
07

Obrázek

kvalita

Citace:
General
Complete name : D:\up1\1\07.mp3
Format : MPEG Audio
File size : 666 KiB
Duration : 1mn 37s
Overall bit rate mode : Constant
Overall bit rate : 56.0 Kbps

Audio
Format : MPEG Audio
Format version : Version 2
Format profile : Layer 3
Duration : 1mn 37s
Bit rate mode : Constant
Bit rate : 56.0 Kbps
Channel(s) : 1 channel
Sampling rate : 22.05 KHz
Compression mode : Lossy
Stream size : 666 KiB (100%)



download

Pro zobrazení linků musíte být přihlášen!
Pokud ještě nemáte zaregistrovaný účet, můžete se zaregistrovat.

_________________
Obrázek

Pro zobrazení linků musíte být přihlášen!
Pokud ještě nemáte zaregistrovaný účet, můžete se zaregistrovat.


Nahoru
 Profil  
 Předmět příspěvku: hudba - mp3 - vyber
PříspěvekNapsal: 28 bře 2018 22:05 
Navigátor

Registrován: 05 zář 2014 20:01
Příspěvky: 1280
Poděkoval: 4x
Poděkováno: 5x
W4A Money: 50610
Offline
Cruel Intentions (OST) - 03 - Blur - Coffee & TV

Obrázek



kvalita

Citace:
General
Complete name : D:\up\Cruel Intentions (OST) - 03 - Blur - Coffee & TV.mp3
Format : MPEG Audio
File size : 7.31 MiB
Duration : 5mn 19s
Overall bit rate mode : Constant
Overall bit rate : 192 Kbps
Album : Cruel Intentions (OST)
Track name : Coffee & TV
Track name/Position : 3
Performer : Blur
Genre : Soundtrack
Recorded date : 1999
Writing library : LAME3.96r
Comment : EAC/LAME 3.90.2 APS stygian

Audio
Format : MPEG Audio
Format version : Version 1
Format profile : Layer 3
Duration : 5mn 19s
Bit rate mode : Constant
Bit rate : 192 Kbps
Channel(s) : 2 channels
Sampling rate : 44.1 KHz
Compression mode : Lossy
Stream size : 7.31 MiB (100%)
Writing library : LAME3.96r
Encoding settings : -m s -V 4 -q 3 -lowpass 19.5 -b 192


download

Pro zobrazení linků musíte být přihlášen!
Pokud ještě nemáte zaregistrovaný účet, můžete se zaregistrovat.

_________________
Obrázek

Pro zobrazení linků musíte být přihlášen!
Pokud ještě nemáte zaregistrovaný účet, můžete se zaregistrovat.


Nahoru
 Profil  
Zobrazit příspěvky za předchozí:  Seřadit podle  
Odpovědět na téma  [ Příspěvků: 53 ]  Přejít na stránku Předchozí  1, 2, 3, 4

Všechny časy jsou v UTC + 1 hodina


Kdo je online

Uživatelé procházející toto fórum: Žádní registrovaní uživatelé a 1 návštěvník



Nemůžete zakládat nová témata v tomto fóru
Nemůžete odpovídat v tomto fóru
Nemůžete upravovat své příspěvky v tomto fóru
Nemůžete mazat své příspěvky v tomto fóru
Nemůžete přikládat soubory v tomto fóru

Přejít na:  

Time : 0.130s | 24 Queries | GZIP : Off

Filmy ke stažení zdarma | Cheaty | Pocket PC | Android | Windows Phone 7 | iGO 8 | Apple iPhone | Symbian Smartphone | ROM | Windows Mobile | BlackBerry | Palm | Java | Warez mobile forum