hudba - mp3 - vyber

Jednotlivé songy, FTP atp...

Moderátoři: sedum, pepislaf

warup
Navigátor
Navigátor
Příspěvky: 1303
Registrován: 05 zář 2014 21:01
Dal poděkování: 2 poděkování
Dostal poděkování: 1 poděkování

hudba - mp3 - vyber

Příspěvek od warup » 02 led 2018 22:39

Kód: Vybrat vše

https://uloz.to/!JcOvDXBmWU7S/vrana-pomsta-trailer-cekej-filmy-pokracovani-vrany-mp3
https://uloz.to/!pDCX7Hy206QF/demo-audio-2-mp3
https://uloz.to/!BuwbFOA2Gu5A/zverina-pimpin-rap-feat-kardinal-korec-mp3
https://www.uloz.to/!xrHHISvpPnlf/mimo-moje-uzemi-intro-album-protiklady-320-kbps-youtube-2-mp3-converter-mp3
https://uloz.to/!c1S3ZrCLCvWO/slipo-hajtkovic-intro-mp3
Obrázek

Kód: Vybrat vše

http://datoid.cz/?p=143827  
warup
Navigátor
Navigátor
Příspěvky: 1303
Registrován: 05 zář 2014 21:01
Dal poděkování: 2 poděkování
Dostal poděkování: 1 poděkování

hudba - mp3 - vyber

Příspěvek od warup » 14 úno 2018 13:27

Johny Machette - Stačí Mi To Nejlepší

Obrázek



kvalita
General
Complete name : D:\up\Johny Machette - Stačí Mi To Nejlepší.mp3
Format : MPEG Audio
File size : 6.53 MiB
Duration : 2mn 51s
Overall bit rate mode : Variable
Overall bit rate : 320 Kbps
Encoded date : UTC 2013-08- 9 08:53:47
Writing library : LAME3.98.4
major_brand : mp42
minor_version : 0
compatible_brands : isommp42

Audio
Format : MPEG Audio
Format version : Version 1
Format profile : Layer 3
Mode : Joint stereo
Mode extension : MS Stereo
Duration : 2mn 51s
Bit rate mode : Variable
Bit rate : 320 Kbps
Channel(s) : 2 channels
Sampling rate : 44.1 KHz
Compression mode : Lossy
Stream size : 6.53 MiB (100%)
Writing library : LAME3.98.4
download

Kód: Vybrat vše

https://uloz.to/!8eqUz2d1r54m/johny-machette-staci-mi-to-nejlepsi-mp3
05 Dead City

Kód: Vybrat vše

https://uloz.to/!xrM5XDtu8xnt/05-dead-city-mp3
12 Peaceful Moments

Kód: Vybrat vše

https://uloz.to/!x9EYmdg8kN3Y/12-peaceful-moments-mp3
15 The Order

Kód: Vybrat vše

https://uloz.to/!1pTH0TRqkerc/15-the-order-mp3
21 The Lesser of Two Evils

Kód: Vybrat vše

https://uloz.to/!SCYGDNxxhPB6/21-the-lesser-of-two-evils-mp3
24 The Dike

Kód: Vybrat vše

https://uloz.to/!EXGpY3PyIDBS/24-the-dike-mp3
Naposledy upravil(a) warup dne 24 úno 2018 20:27, celkem upraveno 4 x.
Obrázek

Kód: Vybrat vše

http://datoid.cz/?p=143827  
warup
Navigátor
Navigátor
Příspěvky: 1303
Registrován: 05 zář 2014 21:01
Dal poděkování: 2 poděkování
Dostal poděkování: 1 poděkování

hudba - mp3 - vyber

Příspěvek od warup » 24 úno 2018 13:20

přidan odkaz
Obrázek

Kód: Vybrat vše

http://datoid.cz/?p=143827  
warup
Navigátor
Navigátor
Příspěvky: 1303
Registrován: 05 zář 2014 21:01
Dal poděkování: 2 poděkování
Dostal poděkování: 1 poděkování

hudba - mp3 - vyber

Příspěvek od warup » 24 úno 2018 17:50

přidan dalši song
Obrázek

Kód: Vybrat vše

http://datoid.cz/?p=143827  
warup
Navigátor
Navigátor
Příspěvky: 1303
Registrován: 05 zář 2014 21:01
Dal poděkování: 2 poděkování
Dostal poděkování: 1 poděkování

hudba - mp3 - vyber

Příspěvek od warup » 26 úno 2018 12:56

Eminem - White Trash Party

Obrázek

lyrics

Kód: Vybrat vše

https://genius.com/Eminem-wtp-lyrics


kvalita
General
Complete name : D:\up1\1\Eminem - White Trash Party.mp3
Format : MPEG Audio
File size : 9.82 MiB
Duration : 4mn 17s
Overall bit rate mode : Variable
Overall bit rate : 320 Kbps
Encoded date : UTC 2011-05- 6 18:42:24
Writing library : LAME3.98.4
major_brand : mp42
minor_version : 0
compatible_brands : isommp42

Audio
Format : MPEG Audio
Format version : Version 1
Format profile : Layer 3
Mode : Joint stereo
Mode extension : MS Stereo
Duration : 4mn 17s
Bit rate mode : Variable
Bit rate : 320 Kbps
Channel(s) : 2 channels
Sampling rate : 44.1 KHz
Compression mode : Lossy
Stream size : 9.82 MiB (100%)
Writing library : LAME3.98.4
download

Kód: Vybrat vše

https://uloz.to/!mWZ1yfoiT3ME/eminem-white-trash-party-mp3
Obrázek

Kód: Vybrat vše

http://datoid.cz/?p=143827  
warup
Navigátor
Navigátor
Příspěvky: 1303
Registrován: 05 zář 2014 21:01
Dal poděkování: 2 poděkování
Dostal poděkování: 1 poděkování

hudba - mp3 - vyber

Příspěvek od warup » 02 bře 2018 09:10

Tafrob - Oskar (prod. Emeres)

Obrázek

kvalita
General
Complete name : D:\up1\1\Tafrob - Oskar (prod. Emeres).mp3
Format : MPEG Audio
File size : 7.43 MiB
Duration : 3mn 14s
Overall bit rate mode : Variable
Overall bit rate : 320 Kbps
Album : aaa
Encoded date : UTC 2013-06- 2 00:29:06
Writing library : LAME3.98.4
major_brand : mp42
minor_version : 0
compatible_brands : isommp42

Audio
Format : MPEG Audio
Format version : Version 1
Format profile : Layer 3
Mode : Joint stereo
Duration : 3mn 14s
Bit rate mode : Variable
Bit rate : 320 Kbps
Channel(s) : 2 channels
Sampling rate : 44.1 KHz
Compression mode : Lossy
Stream size : 7.42 MiB (100%)
Writing library : LAME3.98.4
download

Kód: Vybrat vše

https://uloz.to/!p2KImGTPmIVo/tafrob-oskar-prod-emeres-mp3
Obrázek

Kód: Vybrat vše

http://datoid.cz/?p=143827  
warup
Navigátor
Navigátor
Příspěvky: 1303
Registrován: 05 zář 2014 21:01
Dal poděkování: 2 poděkování
Dostal poděkování: 1 poděkování

hudba - mp3 - vyber

Příspěvek od warup » 04 bře 2018 16:56

07

Obrázek

kvalita
General
Complete name : D:\up1\1\07.mp3
Format : MPEG Audio
File size : 666 KiB
Duration : 1mn 37s
Overall bit rate mode : Constant
Overall bit rate : 56.0 Kbps

Audio
Format : MPEG Audio
Format version : Version 2
Format profile : Layer 3
Duration : 1mn 37s
Bit rate mode : Constant
Bit rate : 56.0 Kbps
Channel(s) : 1 channel
Sampling rate : 22.05 KHz
Compression mode : Lossy
Stream size : 666 KiB (100%)
download

Kód: Vybrat vše

https://uloz.to/!fQ3Vl6MNGmW4/07-mp3
Obrázek

Kód: Vybrat vše

http://datoid.cz/?p=143827  
warup
Navigátor
Navigátor
Příspěvky: 1303
Registrován: 05 zář 2014 21:01
Dal poděkování: 2 poděkování
Dostal poděkování: 1 poděkování

hudba - mp3 - vyber

Příspěvek od warup » 28 bře 2018 23:05

Cruel Intentions (OST) - 03 - Blur - Coffee & TV

Obrázek



kvalita
General
Complete name : D:\up\Cruel Intentions (OST) - 03 - Blur - Coffee & TV.mp3
Format : MPEG Audio
File size : 7.31 MiB
Duration : 5mn 19s
Overall bit rate mode : Constant
Overall bit rate : 192 Kbps
Album : Cruel Intentions (OST)
Track name : Coffee & TV
Track name/Position : 3
Performer : Blur
Genre : Soundtrack
Recorded date : 1999
Writing library : LAME3.96r
Comment : EAC/LAME 3.90.2 APS stygian

Audio
Format : MPEG Audio
Format version : Version 1
Format profile : Layer 3
Duration : 5mn 19s
Bit rate mode : Constant
Bit rate : 192 Kbps
Channel(s) : 2 channels
Sampling rate : 44.1 KHz
Compression mode : Lossy
Stream size : 7.31 MiB (100%)
Writing library : LAME3.96r
Encoding settings : -m s -V 4 -q 3 -lowpass 19.5 -b 192
download

Kód: Vybrat vše

http://alfafile.net/file/sPbY
Obrázek

Kód: Vybrat vše

http://datoid.cz/?p=143827  
Odpovědět

Zpět na „Nezařaditelné“