hudba - mp3 - vyber

Jednotlivé songy, FTP atp...

Moderátoři: sedum, pepislaf

warup
Navigátor
Navigátor
Příspěvky: 1290
Registrován: 05 zář 2014 20:01
Dal poděkování: 2 poděkování
Dostal poděkování: 1 poděkování

hudba - mp3 - vyber

Příspěvek od warup » 19 lis 2017 18:02

09 - Dar z neba

Obrázek

kvalita
General
Complete name : D:\up\09 - Dar z neba.mp3
Format : MPEG Audio
File size : 11.4 MiB
Duration : 4mn 57s
Overall bit rate mode : Constant
Overall bit rate : 320 Kbps
Album : MATKA MÁRIA
Track name : Dar z neba
Track name/Position : 9
Performer : Zmožek Jiøí
Genre : Other
Recorded date : 2007
Writing library : LAME3.93

Audio
Format : MPEG Audio
Format version : Version 1
Format profile : Layer 3
Duration : 4mn 57s
Bit rate mode : Constant
Bit rate : 320 Kbps
Channel(s) : 2 channels
Sampling rate : 44.1 KHz
Compression mode : Lossy
Stream size : 11.3 MiB (100%)
Writing library : LAME3.93
download

Kód: Vybrat vše

https://uloz.to/!WWFnmjlCJtha/09-dar-z-neba-mp3
Obrázek

Kód: Vybrat vše

http://datoid.cz/?p=143827  
warup
Navigátor
Navigátor
Příspěvky: 1290
Registrován: 05 zář 2014 20:01
Dal poděkování: 2 poděkování
Dostal poděkování: 1 poděkování

hudba - mp3 - vyber

Příspěvek od warup » 19 lis 2017 18:38

04 - Láska, volám láska

Obrázek

kvalita
General
Complete name : D:\up\04 - Láska, volám láska.mp3
Format : MPEG Audio
File size : 12.9 MiB
Duration : 5mn 38s
Overall bit rate mode : Constant
Overall bit rate : 320 Kbps
Album : MATKA MÁRIA
Track name : Láska, volám láska
Track name/Position : 4
Performer : Zmožek Jiøí
Genre : Other
Recorded date : 2007
Writing library : LAME3.93

Audio
Format : MPEG Audio
Format version : Version 1
Format profile : Layer 3
Duration : 5mn 38s
Bit rate mode : Constant
Bit rate : 320 Kbps
Channel(s) : 2 channels
Sampling rate : 44.1 KHz
Compression mode : Lossy
Stream size : 12.9 MiB (100%)
Writing library : LAME3.93
download

Kód: Vybrat vše

https://uloz.to/!UTAhu2nr9C7h/04-laska-volam-laska-mp3
Obrázek

Kód: Vybrat vše

http://datoid.cz/?p=143827  
warup
Navigátor
Navigátor
Příspěvky: 1290
Registrován: 05 zář 2014 20:01
Dal poděkování: 2 poděkování
Dostal poděkování: 1 poděkování

hudba - mp3 - vyber

Příspěvek od warup » 21 lis 2017 14:34

01 - Matka Mária.mp3

Obrázek

kvalita
General
Complete name : D:\up1\01 - Matka Mária.mp3.mp3
Format : MPEG Audio
File size : 14.4 MiB
Duration : 6mn 18s
Overall bit rate mode : Constant
Overall bit rate : 320 Kbps
Album : MATKA MÁRIA
Track name : Matka Mária
Track name/Position : 1
Performer : Zmožek Jiøí
Genre : Other
Recorded date : 2007
Writing library : LAME3.93

Audio
Format : MPEG Audio
Format version : Version 1
Format profile : Layer 3
Duration : 6mn 18s
Bit rate mode : Constant
Bit rate : 320 Kbps
Channel(s) : 2 channels
Sampling rate : 44.1 KHz
Compression mode : Lossy
Stream size : 14.4 MiB (100%)
Writing library : LAME3.93
download

Kód: Vybrat vše

https://uloz.to/!0Zjd8hfVmVFI/01-matka-maria-mp3-mp3
Obrázek

Kód: Vybrat vše

http://datoid.cz/?p=143827  
warup
Navigátor
Navigátor
Příspěvky: 1290
Registrován: 05 zář 2014 20:01
Dal poděkování: 2 poděkování
Dostal poděkování: 1 poděkování

hudba - mp3 - vyber

Příspěvek od warup » 22 lis 2017 11:37

08 - Svatá krv

Obrázek

kvalita
General
Complete name : D:\up1\05 - Budem oslavovať Tvoje jméno.mp3
Format : MPEG Audio
File size : 8.23 MiB
Duration : 3mn 35s
Overall bit rate mode : Constant
Overall bit rate : 320 Kbps
Album : MATKA MÁRIA
Track name : Budem oslavova Tvoje jméno
Track name/Position : 5
Performer : Zmožek Jiøí
Genre : Other
Recorded date : 2007
Writing library : LAME3.93

Audio
Format : MPEG Audio
Format version : Version 1
Format profile : Layer 3
Duration : 3mn 35s
Bit rate mode : Constant
Bit rate : 320 Kbps
Channel(s) : 2 channels
Sampling rate : 44.1 KHz
Compression mode : Lossy
Stream size : 8.23 MiB (100%)
Writing library : LAME3.93
dowload

Kód: Vybrat vše

https://uloz.to/!wRgPi6Gpww2s/08-svata-krv-mp3
Obrázek

Kód: Vybrat vše

http://datoid.cz/?p=143827  
warup
Navigátor
Navigátor
Příspěvky: 1290
Registrován: 05 zář 2014 20:01
Dal poděkování: 2 poděkování
Dostal poděkování: 1 poděkování

hudba - mp3 - vyber

Příspěvek od warup » 22 lis 2017 12:10

10 - Možno zajtra už

Obrázek

kvalita
General
Complete name : D:\up1\10 - Možno zajtra už.mp3
Format : MPEG Audio
File size : 7.35 MiB
Duration : 3mn 12s
Overall bit rate mode : Constant
Overall bit rate : 320 Kbps
Album : MATKA MÁRIA
Track name : Možno zajtra už
Track name/Position : 10
Performer : Zmožek Jiøí
Genre : Other
Recorded date : 2007
Writing library : LAME3.93

Audio
Format : MPEG Audio
Format version : Version 1
Format profile : Layer 3
Duration : 3mn 12s
Bit rate mode : Constant
Bit rate : 320 Kbps
Channel(s) : 2 channels
Sampling rate : 44.1 KHz
Compression mode : Lossy
Stream size : 7.35 MiB (100%)
Writing library : LAME3.93
download

Kód: Vybrat vše

https://uloz.to/!GRdMK9K50GkR/10-mozno-zajtra-uz-mp3
Obrázek

Kód: Vybrat vše

http://datoid.cz/?p=143827  
warup
Navigátor
Navigátor
Příspěvky: 1290
Registrován: 05 zář 2014 20:01
Dal poděkování: 2 poděkování
Dostal poděkování: 1 poděkování

hudba - mp3 - vyber

Příspěvek od warup » 26 lis 2017 09:38

11 - Teraz už poznám Ježiša

Obrázek

kvalita
General
Complete name : D:\up1\mp3\11 - Teraz už poznám Ježiša.mp3
Format : MPEG Audio
File size : 5.72 MiB
Duration : 2mn 29s
Overall bit rate mode : Constant
Overall bit rate : 320 Kbps
Album : MATKA MÁRIA
Track name : Teraz už poznám Ježiša
Track name/Position : 11
Performer : Zmožek Jiøí
Genre : Other
Recorded date : 2007
Writing library : LAME3.93

Audio
Format : MPEG Audio
Format version : Version 1
Format profile : Layer 3
Duration : 2mn 29s
Bit rate mode : Constant
Bit rate : 320 Kbps
Channel(s) : 2 channels
Sampling rate : 44.1 KHz
Compression mode : Lossy
Stream size : 5.71 MiB (100%)
Writing library : LAME3.93
download

Kód: Vybrat vše

https://uloz.to/!bLoM7VOGy76P/11-teraz-uz-poznam-jezisa-mp3
Obrázek

Kód: Vybrat vše

http://datoid.cz/?p=143827  
warup
Navigátor
Navigátor
Příspěvky: 1290
Registrován: 05 zář 2014 20:01
Dal poděkování: 2 poděkování
Dostal poděkování: 1 poděkování

hudba - mp3 - vyber

Příspěvek od warup » 26 lis 2017 13:28

12 - Ja dobre viem, že raz uzriem Pána

Obrázek

kvalita
General
Complete name : D:\up1\mp3\12 - Ja dobre viem, že raz uzriem Pána.mp3
Format : MPEG Audio
File size : 7.65 MiB
Duration : 3mn 20s
Overall bit rate mode : Constant
Overall bit rate : 320 Kbps
Album : MATKA MÁRIA
Track name : Ja dobre viem, že raz uzriem Pána
Track name/Position : 12
Performer : Zmožek Jiøí
Genre : Other
Recorded date : 2007
Writing library : LAME3.93

Audio
Format : MPEG Audio
Format version : Version 1
Format profile : Layer 3
Duration : 3mn 20s
Bit rate mode : Constant
Bit rate : 320 Kbps
Channel(s) : 2 channels
Sampling rate : 44.1 KHz
Compression mode : Lossy
Stream size : 7.64 MiB (100%)
Writing library : LAME3.93
download

Kód: Vybrat vše

https://webshare.cz/file/6c77kQ4yq4/12-ja-dobre-viem-ze-raz-uzriem-pana-mp3
Obrázek

Kód: Vybrat vše

http://datoid.cz/?p=143827  
warup
Navigátor
Navigátor
Příspěvky: 1290
Registrován: 05 zář 2014 20:01
Dal poděkování: 2 poděkování
Dostal poděkování: 1 poděkování

hudba - mp3 - vyber

Příspěvek od warup » 26 lis 2017 15:06

13 - Naveky zvíťazil baránok

Obrázek

kvalita
General
Complete name : D:\up1\mp3\13 - Naveky zvíťazil baránok.mp3
Format : MPEG Audio
File size : 20.3 MiB
Duration : 8mn 52s
Overall bit rate mode : Constant
Overall bit rate : 320 Kbps
Album : MATKA MÁRIA
Track name : Naveky zvíazil baránok
Track name/Position : 13
Performer : Zmožek Jiøí
Genre : Other
Recorded date : 2007
Writing library : LAME3.93

Audio
Format : MPEG Audio
Format version : Version 1
Format profile : Layer 3
Duration : 8mn 52s
Bit rate mode : Constant
Bit rate : 320 Kbps
Channel(s) : 2 channels
Sampling rate : 44.1 KHz
Compression mode : Lossy
Stream size : 20.3 MiB (100%)
Writing library : LAME3.93
download

Kód: Vybrat vše

https://bitster.cz/file/2178ae/13_-_Naveky_zvitazil_baranok-mp3
Obrázek

Kód: Vybrat vše

http://datoid.cz/?p=143827  
warup
Navigátor
Navigátor
Příspěvky: 1290
Registrován: 05 zář 2014 20:01
Dal poděkování: 2 poděkování
Dostal poděkování: 1 poděkování

hudba - mp3 - vyber

Příspěvek od warup » 02 pro 2017 17:30

Elmo - zavidiš uspěch (prod. L.D)

Obrázek

kvalita
General
Complete name : D:\up\Elmo - zavidiš uspěch (prod. L.D).mp3
Format : MPEG Audio
File size : 4.51 MiB
Duration : 3mn 16s
Overall bit rate mode : Constant
Overall bit rate : 192 Kbps
Writing library : LAME3.99.5
major_brand : dash
minor_version : 0
compatible_brands : iso6mp41

Audio
Format : MPEG Audio
Format version : Version 1
Format profile : Layer 3
Mode : Joint stereo
Duration : 3mn 17s
Bit rate mode : Constant
Bit rate : 192 Kbps
Channel(s) : 2 channels
Sampling rate : 44.1 KHz
Compression mode : Lossy
Stream size : 4.51 MiB (100%)
Writing library : LAME3.99.5
dowload

Kód: Vybrat vše

https://uloz.to/!bkWaTDxXD2LG/elmo-zavidis-uspech-prod-l-d-mp3
Obrázek

Kód: Vybrat vše

http://datoid.cz/?p=143827  
warup
Navigátor
Navigátor
Příspěvky: 1290
Registrován: 05 zář 2014 20:01
Dal poděkování: 2 poděkování
Dostal poděkování: 1 poděkování

hudba - mp3 - vyber

Příspěvek od warup » 04 pro 2017 13:47

smack - LIDICZSKY 2013

Obrázek

kvalita
General
Complete name : D:\up\smack - LIDICZSKY 2013.mp3
File size : 0.00 Byte
download

Kód: Vybrat vše

https://uloz.to/!X4iiRWOx1LHm/smack-lidiczsky-2013-mp3
Obrázek

Kód: Vybrat vše

http://datoid.cz/?p=143827  
warup
Navigátor
Navigátor
Příspěvky: 1290
Registrován: 05 zář 2014 20:01
Dal poděkování: 2 poděkování
Dostal poděkování: 1 poděkování

hudba - mp3 - vyber

Příspěvek od warup » 06 pro 2017 09:32

DCA - DCA - Koukej na to (dirty version)

Obrázek

kvalita¨
General
Complete name : D:\up\mp3\DCA - DCA - Koukej na to (dirty version).mp3
Format : MPEG Audio
File size : 3.41 MiB
Duration : 2mn 28s
Overall bit rate mode : Constant
Overall bit rate : 192 Kbps
Writing library : LAME3.99.5
major_brand : dash
minor_version : 0
compatible_brands : iso6mp41

Audio
Format : MPEG Audio
Format version : Version 1
Format profile : Layer 3
Mode : Joint stereo
Mode extension : MS Stereo
Duration : 2mn 29s
Bit rate mode : Constant
Bit rate : 192 Kbps
Channel(s) : 2 channels
Sampling rate : 44.1 KHz
Compression mode : Lossy
Stream size : 3.41 MiB (100%)
Writing library : LAME3.99.5
download

Kód: Vybrat vše

http://datoid.cz/t5f4nl/dca-dca-koukej-na-to-dirty-version-mp3
Obrázek

Kód: Vybrat vše

http://datoid.cz/?p=143827  
warup
Navigátor
Navigátor
Příspěvky: 1290
Registrován: 05 zář 2014 20:01
Dal poděkování: 2 poděkování
Dostal poděkování: 1 poděkování

hudba - mp3 - vyber

Příspěvek od warup » 06 pro 2017 09:46

rap mix czskeng 40min

Obrázek

kvalita
General
Complete name : D:\up\mp3\rap mix czskeng 40min.mp3
Format : MPEG Audio
File size : 57.4 MiB
Duration : 41mn 47s
Overall bit rate mode : Constant
Overall bit rate : 192 Kbps
Writing library : LAME3.99.5
major_brand : dash
minor_version : 0
compatible_brands : iso6mp41

Audio
Format : MPEG Audio
Format version : Version 1
Format profile : Layer 3
Mode : Joint stereo
Mode extension : MS Stereo
Duration : 41mn 51s
Bit rate mode : Constant
Bit rate : 192 Kbps
Channel(s) : 2 channels
Sampling rate : 44.1 KHz
Compression mode : Lossy
Stream size : 57.4 MiB (100%)
Writing library : LAME3.99.5
download

Kód: Vybrat vše

http://datoid.cz/e7XzQM/rap-mix-czskeng-40min-mp3
Obrázek

Kód: Vybrat vše

http://datoid.cz/?p=143827  
warup
Navigátor
Navigátor
Příspěvky: 1290
Registrován: 05 zář 2014 20:01
Dal poděkování: 2 poděkování
Dostal poděkování: 1 poděkování

hudba - mp3 - vyber

Příspěvek od warup » 19 pro 2017 18:25

02 - Stalo sa to.mp3

Obrázek

kvalita
General
Complete name : D:\up\1\02 - Stalo sa to.mp3.mp3
Format : MPEG Audio
File size : 11.4 MiB
Duration : 4mn 57s
Overall bit rate mode : Constant
Overall bit rate : 320 Kbps
Album : MATKA MÁRIA
Track name : Stalo sa to
Track name/Position : 2
Performer : Zmožek Jiøí
Genre : Other
Recorded date : 2007
Writing library : LAME3.93

Audio
Format : MPEG Audio
Format version : Version 1
Format profile : Layer 3
Duration : 4mn 58s
Bit rate mode : Constant
Bit rate : 320 Kbps
Channel(s) : 2 channels
Sampling rate : 44.1 KHz
Compression mode : Lossy
Stream size : 11.4 MiB (100%)
Writing library : LAME3.93
download

Kód: Vybrat vše

https://uloz.to/!vSWpCvaXrQpo/02-stalo-sa-to-mp3-mp3
Obrázek

Kód: Vybrat vše

http://datoid.cz/?p=143827  
warup
Navigátor
Navigátor
Příspěvky: 1290
Registrován: 05 zář 2014 20:01
Dal poděkování: 2 poděkování
Dostal poděkování: 1 poděkování

hudba - mp3 - vyber

Příspěvek od warup » 30 pro 2017 14:13

21 - Continuous Mix by DJ Magnetrix (Part 1)

Obrázek

kvalita
General
Complete name : D:\up\1\21 - Continuous Mix by DJ Magnetrix (Part 1).mp3
Format : MPEG Audio
File size : 149 MiB
Duration : 1h 4mn
Overall bit rate mode : Constant
Overall bit rate : 320 Kbps
Album : Progressive House Vol.1
Track name : Progressive House Mix Vol.1 (Compiled By ZeByte) Part 1
Track name/Position : 21
Performer : DJ Magnetrix
Publisher : Zebyte
Genre : Progressive House
Recorded date : 2016
Writing library : LAME3.99.5UUUUUUUUU—
BPM : 130
Cover : Yes
Cover description : PH1
Cover type : Cover (front)
Cover MIME : image/jpg
URL : https://vk.com/club128433811

Audio
Format : MPEG Audio
Format version : Version 1
Format profile : Layer 3
Mode : Joint stereo
Duration : 1h 4mn
Bit rate mode : Constant
Bit rate : 320 Kbps
Channel(s) : 2 channels
Sampling rate : 44.1 KHz
Compression mode : Lossy
Stream size : 148 MiB (100%)
Writing library : LAME3.99.5UUUUUUUUU—
download

Kód: Vybrat vše

https://uloz.to/!55WI2JW13wFk/21-continuous-mix-by-dj-magnetrix-part-1-mp3
Obrázek

Kód: Vybrat vše

http://datoid.cz/?p=143827  
warup
Navigátor
Navigátor
Příspěvky: 1290
Registrován: 05 zář 2014 20:01
Dal poděkování: 2 poděkování
Dostal poděkování: 1 poděkování

hudba - mp3 - vyber

Příspěvek od warup » 31 pro 2017 18:41

EGO ft_ Robert Burian - Žijeme len raz-[www_2conv_com]

Obrázek
Obrázek
Obrázek

kvalita
General
Complete name : D:\EGO ft_ Robert Burian - Žijeme len raz-[www_2conv_com].mp3
Format : MPEG Audio
File size : 5.04 MiB
Duration : 3mn 38s
Overall bit rate mode : Constant
Overall bit rate : 192 Kbps
Tagged date : UTC 2012-06- 1T17:01:01
Writing library : LAME3.99.5
Cover : Yes
Cover MIME : image/png

Audio
Format : MPEG Audio
Format version : Version 1
Format profile : Layer 3
Mode : Joint stereo
Mode extension : MS Stereo
Duration : 3mn 38s
Bit rate mode : Constant
Bit rate : 192 Kbps
Channel(s) : 2 channels
Sampling rate : 44.1 KHz
Compression mode : Lossy
Stream size : 5.00 MiB (99%)
Writing library : LAME3.99.5
download

Kód: Vybrat vše

https://uloz.to/!FCuofKFNt060/ego-ft-robert-burian-zijeme-len-raz-www-2conv-com-mp3
Obrázek

Kód: Vybrat vše

http://datoid.cz/?p=143827  
Odpovědět

Zpět na „Nezařaditelné“