Právě je 17 pro 2017 20:28

Všechny časy jsou v UTC + 1 hodina



hudba - mp3 - vyber

[ Moderátorský panel ]



Odeslat nové téma Odpovědět na téma  [ Příspěvků: 42 ]  Přejít na stránku Předchozí  1, 2, 3
Autor Zpráva
 Předmět příspěvku: hudba - mp3 - vyber
PříspěvekNapsal: 19 lis 2017 18:02 
Navigátor

Registrován: 05 zář 2014 20:01
Příspěvky: 1242
Poděkoval: 4x
Poděkováno: 3x
W4A Money: 44010
Offline
09 - Dar z neba

Obrázek

kvalita

Citace:
General
Complete name : D:\up\09 - Dar z neba.mp3
Format : MPEG Audio
File size : 11.4 MiB
Duration : 4mn 57s
Overall bit rate mode : Constant
Overall bit rate : 320 Kbps
Album : MATKA MÁRIA
Track name : Dar z neba
Track name/Position : 9
Performer : Zmožek Jiøí
Genre : Other
Recorded date : 2007
Writing library : LAME3.93

Audio
Format : MPEG Audio
Format version : Version 1
Format profile : Layer 3
Duration : 4mn 57s
Bit rate mode : Constant
Bit rate : 320 Kbps
Channel(s) : 2 channels
Sampling rate : 44.1 KHz
Compression mode : Lossy
Stream size : 11.3 MiB (100%)
Writing library : LAME3.93


download

Pro zobrazení linků musíte být přihlášen!
Pokud ještě nemáte zaregistrovaný účet, můžete se zaregistrovat.

_________________
Obrázek

Pro zobrazení linků musíte být přihlášen!
Pokud ještě nemáte zaregistrovaný účet, můžete se zaregistrovat.


Nahoru
 Profil  
 Předmět příspěvku: hudba - mp3 - vyber
PříspěvekNapsal: 19 lis 2017 18:38 
Navigátor

Registrován: 05 zář 2014 20:01
Příspěvky: 1242
Poděkoval: 4x
Poděkováno: 3x
W4A Money: 44010
Offline
04 - Láska, volám láska

Obrázek

kvalita

Citace:
General
Complete name : D:\up\04 - Láska, volám láska.mp3
Format : MPEG Audio
File size : 12.9 MiB
Duration : 5mn 38s
Overall bit rate mode : Constant
Overall bit rate : 320 Kbps
Album : MATKA MÁRIA
Track name : Láska, volám láska
Track name/Position : 4
Performer : Zmožek Jiøí
Genre : Other
Recorded date : 2007
Writing library : LAME3.93

Audio
Format : MPEG Audio
Format version : Version 1
Format profile : Layer 3
Duration : 5mn 38s
Bit rate mode : Constant
Bit rate : 320 Kbps
Channel(s) : 2 channels
Sampling rate : 44.1 KHz
Compression mode : Lossy
Stream size : 12.9 MiB (100%)
Writing library : LAME3.93


download

Pro zobrazení linků musíte být přihlášen!
Pokud ještě nemáte zaregistrovaný účet, můžete se zaregistrovat.

_________________
Obrázek

Pro zobrazení linků musíte být přihlášen!
Pokud ještě nemáte zaregistrovaný účet, můžete se zaregistrovat.


Nahoru
 Profil  
 Předmět příspěvku: hudba - mp3 - vyber
PříspěvekNapsal: 21 lis 2017 14:34 
Navigátor

Registrován: 05 zář 2014 20:01
Příspěvky: 1242
Poděkoval: 4x
Poděkováno: 3x
W4A Money: 44010
Offline
01 - Matka Mária.mp3

Obrázek

kvalita

Citace:
General
Complete name : D:\up1\01 - Matka Mária.mp3.mp3
Format : MPEG Audio
File size : 14.4 MiB
Duration : 6mn 18s
Overall bit rate mode : Constant
Overall bit rate : 320 Kbps
Album : MATKA MÁRIA
Track name : Matka Mária
Track name/Position : 1
Performer : Zmožek Jiøí
Genre : Other
Recorded date : 2007
Writing library : LAME3.93

Audio
Format : MPEG Audio
Format version : Version 1
Format profile : Layer 3
Duration : 6mn 18s
Bit rate mode : Constant
Bit rate : 320 Kbps
Channel(s) : 2 channels
Sampling rate : 44.1 KHz
Compression mode : Lossy
Stream size : 14.4 MiB (100%)
Writing library : LAME3.93



download

Pro zobrazení linků musíte být přihlášen!
Pokud ještě nemáte zaregistrovaný účet, můžete se zaregistrovat.

_________________
Obrázek

Pro zobrazení linků musíte být přihlášen!
Pokud ještě nemáte zaregistrovaný účet, můžete se zaregistrovat.


Nahoru
 Profil  
 Předmět příspěvku: hudba - mp3 - vyber
PříspěvekNapsal: 22 lis 2017 11:37 
Navigátor

Registrován: 05 zář 2014 20:01
Příspěvky: 1242
Poděkoval: 4x
Poděkováno: 3x
W4A Money: 44010
Offline
08 - Svatá krv

Obrázek

kvalita

Citace:
General
Complete name : D:\up1\05 - Budem oslavovať Tvoje jméno.mp3
Format : MPEG Audio
File size : 8.23 MiB
Duration : 3mn 35s
Overall bit rate mode : Constant
Overall bit rate : 320 Kbps
Album : MATKA MÁRIA
Track name : Budem oslavova Tvoje jméno
Track name/Position : 5
Performer : Zmožek Jiøí
Genre : Other
Recorded date : 2007
Writing library : LAME3.93

Audio
Format : MPEG Audio
Format version : Version 1
Format profile : Layer 3
Duration : 3mn 35s
Bit rate mode : Constant
Bit rate : 320 Kbps
Channel(s) : 2 channels
Sampling rate : 44.1 KHz
Compression mode : Lossy
Stream size : 8.23 MiB (100%)
Writing library : LAME3.93


dowload

Pro zobrazení linků musíte být přihlášen!
Pokud ještě nemáte zaregistrovaný účet, můžete se zaregistrovat.

_________________
Obrázek

Pro zobrazení linků musíte být přihlášen!
Pokud ještě nemáte zaregistrovaný účet, můžete se zaregistrovat.


Nahoru
 Profil  
 Předmět příspěvku: hudba - mp3 - vyber
PříspěvekNapsal: 22 lis 2017 12:10 
Navigátor

Registrován: 05 zář 2014 20:01
Příspěvky: 1242
Poděkoval: 4x
Poděkováno: 3x
W4A Money: 44010
Offline
10 - Možno zajtra už

Obrázek

kvalita

Citace:
General
Complete name : D:\up1\10 - Možno zajtra už.mp3
Format : MPEG Audio
File size : 7.35 MiB
Duration : 3mn 12s
Overall bit rate mode : Constant
Overall bit rate : 320 Kbps
Album : MATKA MÁRIA
Track name : Možno zajtra už
Track name/Position : 10
Performer : Zmožek Jiøí
Genre : Other
Recorded date : 2007
Writing library : LAME3.93

Audio
Format : MPEG Audio
Format version : Version 1
Format profile : Layer 3
Duration : 3mn 12s
Bit rate mode : Constant
Bit rate : 320 Kbps
Channel(s) : 2 channels
Sampling rate : 44.1 KHz
Compression mode : Lossy
Stream size : 7.35 MiB (100%)
Writing library : LAME3.93


download

Pro zobrazení linků musíte být přihlášen!
Pokud ještě nemáte zaregistrovaný účet, můžete se zaregistrovat.

_________________
Obrázek

Pro zobrazení linků musíte být přihlášen!
Pokud ještě nemáte zaregistrovaný účet, můžete se zaregistrovat.


Nahoru
 Profil  
 Předmět příspěvku: hudba - mp3 - vyber
PříspěvekNapsal: 26 lis 2017 09:38 
Navigátor

Registrován: 05 zář 2014 20:01
Příspěvky: 1242
Poděkoval: 4x
Poděkováno: 3x
W4A Money: 44010
Offline
11 - Teraz už poznám Ježiša

Obrázek

kvalita

Citace:
General
Complete name : D:\up1\mp3\11 - Teraz už poznám Ježiša.mp3
Format : MPEG Audio
File size : 5.72 MiB
Duration : 2mn 29s
Overall bit rate mode : Constant
Overall bit rate : 320 Kbps
Album : MATKA MÁRIA
Track name : Teraz už poznám Ježiša
Track name/Position : 11
Performer : Zmožek Jiøí
Genre : Other
Recorded date : 2007
Writing library : LAME3.93

Audio
Format : MPEG Audio
Format version : Version 1
Format profile : Layer 3
Duration : 2mn 29s
Bit rate mode : Constant
Bit rate : 320 Kbps
Channel(s) : 2 channels
Sampling rate : 44.1 KHz
Compression mode : Lossy
Stream size : 5.71 MiB (100%)
Writing library : LAME3.93


download

Pro zobrazení linků musíte být přihlášen!
Pokud ještě nemáte zaregistrovaný účet, můžete se zaregistrovat.

_________________
Obrázek

Pro zobrazení linků musíte být přihlášen!
Pokud ještě nemáte zaregistrovaný účet, můžete se zaregistrovat.


Nahoru
 Profil  
 Předmět příspěvku: hudba - mp3 - vyber
PříspěvekNapsal: 26 lis 2017 13:28 
Navigátor

Registrován: 05 zář 2014 20:01
Příspěvky: 1242
Poděkoval: 4x
Poděkováno: 3x
W4A Money: 44010
Offline
12 - Ja dobre viem, že raz uzriem Pána

Obrázek

kvalita

Citace:
General
Complete name : D:\up1\mp3\12 - Ja dobre viem, že raz uzriem Pána.mp3
Format : MPEG Audio
File size : 7.65 MiB
Duration : 3mn 20s
Overall bit rate mode : Constant
Overall bit rate : 320 Kbps
Album : MATKA MÁRIA
Track name : Ja dobre viem, že raz uzriem Pána
Track name/Position : 12
Performer : Zmožek Jiøí
Genre : Other
Recorded date : 2007
Writing library : LAME3.93

Audio
Format : MPEG Audio
Format version : Version 1
Format profile : Layer 3
Duration : 3mn 20s
Bit rate mode : Constant
Bit rate : 320 Kbps
Channel(s) : 2 channels
Sampling rate : 44.1 KHz
Compression mode : Lossy
Stream size : 7.64 MiB (100%)
Writing library : LAME3.93



download

Pro zobrazení linků musíte být přihlášen!
Pokud ještě nemáte zaregistrovaný účet, můžete se zaregistrovat.

_________________
Obrázek

Pro zobrazení linků musíte být přihlášen!
Pokud ještě nemáte zaregistrovaný účet, můžete se zaregistrovat.


Nahoru
 Profil  
 Předmět příspěvku: hudba - mp3 - vyber
PříspěvekNapsal: 26 lis 2017 15:06 
Navigátor

Registrován: 05 zář 2014 20:01
Příspěvky: 1242
Poděkoval: 4x
Poděkováno: 3x
W4A Money: 44010
Offline
13 - Naveky zvíťazil baránok

Obrázek

kvalita

Citace:
General
Complete name : D:\up1\mp3\13 - Naveky zvíťazil baránok.mp3
Format : MPEG Audio
File size : 20.3 MiB
Duration : 8mn 52s
Overall bit rate mode : Constant
Overall bit rate : 320 Kbps
Album : MATKA MÁRIA
Track name : Naveky zvíazil baránok
Track name/Position : 13
Performer : Zmožek Jiøí
Genre : Other
Recorded date : 2007
Writing library : LAME3.93

Audio
Format : MPEG Audio
Format version : Version 1
Format profile : Layer 3
Duration : 8mn 52s
Bit rate mode : Constant
Bit rate : 320 Kbps
Channel(s) : 2 channels
Sampling rate : 44.1 KHz
Compression mode : Lossy
Stream size : 20.3 MiB (100%)
Writing library : LAME3.93


download

Pro zobrazení linků musíte být přihlášen!
Pokud ještě nemáte zaregistrovaný účet, můžete se zaregistrovat.

_________________
Obrázek

Pro zobrazení linků musíte být přihlášen!
Pokud ještě nemáte zaregistrovaný účet, můžete se zaregistrovat.


Nahoru
 Profil  
 Předmět příspěvku: hudba - mp3 - vyber
PříspěvekNapsal: 02 pro 2017 17:30 
Navigátor

Registrován: 05 zář 2014 20:01
Příspěvky: 1242
Poděkoval: 4x
Poděkováno: 3x
W4A Money: 44010
Offline
Elmo - zavidiš uspěch (prod. L.D)

Obrázek

kvalita

Citace:
General
Complete name : D:\up\Elmo - zavidiš uspěch (prod. L.D).mp3
Format : MPEG Audio
File size : 4.51 MiB
Duration : 3mn 16s
Overall bit rate mode : Constant
Overall bit rate : 192 Kbps
Writing library : LAME3.99.5
major_brand : dash
minor_version : 0
compatible_brands : iso6mp41

Audio
Format : MPEG Audio
Format version : Version 1
Format profile : Layer 3
Mode : Joint stereo
Duration : 3mn 17s
Bit rate mode : Constant
Bit rate : 192 Kbps
Channel(s) : 2 channels
Sampling rate : 44.1 KHz
Compression mode : Lossy
Stream size : 4.51 MiB (100%)
Writing library : LAME3.99.5


dowload

Pro zobrazení linků musíte být přihlášen!
Pokud ještě nemáte zaregistrovaný účet, můžete se zaregistrovat.

_________________
Obrázek

Pro zobrazení linků musíte být přihlášen!
Pokud ještě nemáte zaregistrovaný účet, můžete se zaregistrovat.


Nahoru
 Profil  
 Předmět příspěvku: hudba - mp3 - vyber
PříspěvekNapsal: 04 pro 2017 13:47 
Navigátor

Registrován: 05 zář 2014 20:01
Příspěvky: 1242
Poděkoval: 4x
Poděkováno: 3x
W4A Money: 44010
Offline
smack - LIDICZSKY 2013

Obrázek

kvalita

Citace:
General
Complete name : D:\up\smack - LIDICZSKY 2013.mp3
File size : 0.00 Byte



download

Pro zobrazení linků musíte být přihlášen!
Pokud ještě nemáte zaregistrovaný účet, můžete se zaregistrovat.

_________________
Obrázek

Pro zobrazení linků musíte být přihlášen!
Pokud ještě nemáte zaregistrovaný účet, můžete se zaregistrovat.


Nahoru
 Profil  
 Předmět příspěvku: hudba - mp3 - vyber
PříspěvekNapsal: 06 pro 2017 09:32 
Navigátor

Registrován: 05 zář 2014 20:01
Příspěvky: 1242
Poděkoval: 4x
Poděkováno: 3x
W4A Money: 44010
Offline
DCA - DCA - Koukej na to (dirty version)

Obrázek

kvalita¨

Citace:
General
Complete name : D:\up\mp3\DCA - DCA - Koukej na to (dirty version).mp3
Format : MPEG Audio
File size : 3.41 MiB
Duration : 2mn 28s
Overall bit rate mode : Constant
Overall bit rate : 192 Kbps
Writing library : LAME3.99.5
major_brand : dash
minor_version : 0
compatible_brands : iso6mp41

Audio
Format : MPEG Audio
Format version : Version 1
Format profile : Layer 3
Mode : Joint stereo
Mode extension : MS Stereo
Duration : 2mn 29s
Bit rate mode : Constant
Bit rate : 192 Kbps
Channel(s) : 2 channels
Sampling rate : 44.1 KHz
Compression mode : Lossy
Stream size : 3.41 MiB (100%)
Writing library : LAME3.99.5


download

Pro zobrazení linků musíte být přihlášen!
Pokud ještě nemáte zaregistrovaný účet, můžete se zaregistrovat.

_________________
Obrázek

Pro zobrazení linků musíte být přihlášen!
Pokud ještě nemáte zaregistrovaný účet, můžete se zaregistrovat.


Nahoru
 Profil  
 Předmět příspěvku: hudba - mp3 - vyber
PříspěvekNapsal: 06 pro 2017 09:46 
Navigátor

Registrován: 05 zář 2014 20:01
Příspěvky: 1242
Poděkoval: 4x
Poděkováno: 3x
W4A Money: 44010
Offline
rap mix czskeng 40min

Obrázek

kvalita

Citace:
General
Complete name : D:\up\mp3\rap mix czskeng 40min.mp3
Format : MPEG Audio
File size : 57.4 MiB
Duration : 41mn 47s
Overall bit rate mode : Constant
Overall bit rate : 192 Kbps
Writing library : LAME3.99.5
major_brand : dash
minor_version : 0
compatible_brands : iso6mp41

Audio
Format : MPEG Audio
Format version : Version 1
Format profile : Layer 3
Mode : Joint stereo
Mode extension : MS Stereo
Duration : 41mn 51s
Bit rate mode : Constant
Bit rate : 192 Kbps
Channel(s) : 2 channels
Sampling rate : 44.1 KHz
Compression mode : Lossy
Stream size : 57.4 MiB (100%)
Writing library : LAME3.99.5


download

Pro zobrazení linků musíte být přihlášen!
Pokud ještě nemáte zaregistrovaný účet, můžete se zaregistrovat.

_________________
Obrázek

Pro zobrazení linků musíte být přihlášen!
Pokud ještě nemáte zaregistrovaný účet, můžete se zaregistrovat.


Nahoru
 Profil  
Zobrazit příspěvky za předchozí:  Seřadit podle  
Odpovědět na téma  [ Příspěvků: 42 ]  Přejít na stránku Předchozí  1, 2, 3

Všechny časy jsou v UTC + 1 hodina


Kdo je online

Uživatelé procházející toto fórum: Žádní registrovaní uživatelé a 1 návštěvník



Nemůžete zakládat nová témata v tomto fóru
Nemůžete odpovídat v tomto fóru
Nemůžete upravovat své příspěvky v tomto fóru
Nemůžete mazat své příspěvky v tomto fóru
Nemůžete přikládat soubory v tomto fóru

Přejít na:  

Time : 0.175s | 28 Queries | GZIP : Off

Filmy ke stažení zdarma | Cheaty | Pocket PC | Android | Windows Phone 7 | iGO 8 | Apple iPhone | Symbian Smartphone | ROM | Windows Mobile | BlackBerry | Palm | Java | Warez mobile forum