Právě je 25 kvě 2018 04:21

Všechny časy jsou v UTC + 1 hodina



videoklipy vyběr (1970 - 2017)

[ Moderátorský panel ]



Odeslat nové téma Odpovědět na téma  [ Příspěvků: 6 ] 
Autor Zpráva
 Předmět příspěvku: videoklipy vyběr (1970 - 2017)
PříspěvekNapsal: 26 črc 2017 14:08 
BANNED

Registrován: 05 zář 2014 20:01
Příspěvky: 1281
Poděkoval: 4x
Poděkováno: 5x
W4A Money: 50745
Offline
Hip Hop Instrumental - Magic City

Obrázek

kvalita

Citace:
General
Complete name : D:\up\1\Hip Hop Instrumental - Magic City\VIDEO_TS\VTS_01_1.VOB
Format : MPEG-PS
File size : 37.6 MiB
Duration : 2 min 19 s
Overall bit rate mode : Variable
Overall bit rate : 2 258 kb/s

Video
ID : 224 (0xE0)
Format : MPEG Video
Format version : Version 2
Format profile : Main@Main
Format settings, BVOP : Yes
Format settings, Matrix : Default
Format settings, GOP : M=3, N=15
Duration : 2 min 19 s
Bit rate mode : Variable
Bit rate : 1 957 kb/s
Maximum bit rate : 9 000 kb/s
Width : 720 pixels
Height : 576 pixels
Display aspect ratio : 16:9
Frame rate : 25.000 FPS
Standard : PAL
Color space : YUV
Chroma subsampling : 4:2:0
Bit depth : 8 bits
Scan type : Progressive
Compression mode : Lossy
Bits/(Pixel*Frame) : 0.189
Time code of first frame : 00:00:00:00
Time code source : Group of pictures header
GOP, Open/Closed : Open
Stream size : 32.6 MiB (87%)

Audio
ID : 189 (0xBD)-128 (0x80)
Format : AC-3
Format/Info : Audio Coding 3
Mode extension : CM (complete main)
Format settings, Endianness : Big
Muxing mode : DVD-Video
Duration : 2 min 19 s
Bit rate mode : Constant
Bit rate : 256 kb/s
Channel(s) : 2 channels
Channel positions : Front: L R
Sampling rate : 48.0 kHz
Frame rate : 31.250 FPS (1536 spf)
Compression mode : Lossy
Stream size : 4.26 MiB (11%)

Menu


download

Pro zobrazení linků musíte být přihlášen!
Pokud ještě nemáte zaregistrovaný účet, můžete se zaregistrovat.

_________________
Obrázek

Pro zobrazení linků musíte být přihlášen!
Pokud ještě nemáte zaregistrovaný účet, můžete se zaregistrovat.


Nahoru
 Profil  
 Předmět příspěvku: videoklipy vyběr (1970 - 2017)
PříspěvekNapsal: 06 pro 2017 09:57 
BANNED

Registrován: 05 zář 2014 20:01
Příspěvky: 1281
Poděkoval: 4x
Poděkováno: 5x
W4A Money: 50745
Offline
2015 GTA SAN ANDREAS - West Coast Freebeat Hip Hop Instrumental [prod. by HunesBeats & InsideBeatz]

Obrázek

kvalita

Citace:
General
Complete name : D:\up\mp4\2015 GTA SAN ANDREAS - West Coast Freebeat Hip Hop Instrumental [prod. by HunesBeats & InsideBeatz].mp4
Format : MPEG-4
Format profile : Base Media
Codec ID : isom
File size : 20.0 MiB
Duration : 2mn 46s
Overall bit rate : 1 010 Kbps
Encoded date : UTC 2015-11-08 06:37:37
Tagged date : UTC 2015-11-08 06:37:37
Writing application : Lavf54.63.104

Video
ID : 1
Format : AVC
Format/Info : Advanced Video Codec
Format profile : Main@L3.1
Format settings, CABAC : Yes
Format settings, ReFrames : 1 frame
Codec ID : avc1
Codec ID/Info : Advanced Video Coding
Duration : 2mn 46s
Bit rate : 686 Kbps
Nominal bit rate : 2 997 Kbps
Width : 1 280 pixels
Height : 720 pixels
Display aspect ratio : 16:9
Frame rate mode : Constant
Frame rate : 25.000 fps
Color space : YUV
Chroma subsampling : 4:2:0
Bit depth : 8 bits
Scan type : Progressive
Bits/(Pixel*Frame) : 0.030
Stream size : 13.6 MiB (68%)
Writing library : x264 core 129
Encoding settings : cabac=1 / ref=1 / deblock=1:0:0 / analyse=0x1:0x131 / me=dia / subme=2 / psy=1 / psy_rd=1.00:0.00 / mixed_ref=0 / me_range=16 / chroma_me=1 / trellis=0 / 8x8dct=0 / cqm=0 / deadzone=21,11 / fast_pskip=1 / chroma_qp_offset=0 / threads=4 / lookahead_threads=1 / sliced_threads=0 / nr=0 / decimate=1 / interlaced=0 / bluray_compat=0 / constrained_intra=0 / bframes=0 / weightp=2 / keyint=250 / keyint_min=25 / scenecut=40 / intra_refresh=0 / rc_lookahead=40 / rc=abr / mbtree=1 / bitrate=2997 / ratetol=1.0 / qcomp=0.60 / qpmin=10 / qpmax=51 / qpstep=4 / ip_ratio=1.41 / aq=1:1.00
Encoded date : UTC 2015-11-08 06:37:37
Tagged date : UTC 2015-11-08 06:37:37

Audio
ID : 2
Format : MPEG Audio
Format version : Version 1
Format profile : Layer 3
Mode : Joint stereo
Mode extension : MS Stereo
Codec ID : 6B
Duration : 2mn 46s
Duration_FirstFrame : 48ms
Bit rate mode : Constant
Bit rate : 320 Kbps
Channel(s) : 2 channels
Sampling rate : 48.0 KHz
Compression mode : Lossy
Stream size : 6.34 MiB (32%)
Writing library : LAME3.99.5
Encoded date : UTC 2015-11-08 06:37:37
Tagged date : UTC 2015-11-08 06:37:37


download

Pro zobrazení linků musíte být přihlášen!
Pokud ještě nemáte zaregistrovaný účet, můžete se zaregistrovat.

_________________
Obrázek

Pro zobrazení linků musíte být přihlášen!
Pokud ještě nemáte zaregistrovaný účet, můžete se zaregistrovat.


Nahoru
 Profil  
 Předmět příspěvku: videoklipy vyběr (1970 - 2017)
PříspěvekNapsal: 06 úno 2018 11:01 
BANNED

Registrován: 05 zář 2014 20:01
Příspěvky: 1281
Poděkoval: 4x
Poděkováno: 5x
W4A Money: 50745
Offline
Aquila PROTESTSONG [.:!NEDĚLEJTE REKLAMU NA JINA ČESKA A SLOVENSKÁ WAREZ FÓRA!:.]_1

Obrázek

ukazka

Pro zobrazení linků musíte být přihlášen!
Pokud ještě nemáte zaregistrovaný účet, můžete se zaregistrovat.


kvalita

Citace:
General
Complete name : D:\up1\Aquila PROTESTSONG [.:!NEDĚLEJTE REKLAMU NA JINA ČESKA A SLOVENSKÁ WAREZ FÓRA!:.]_1.mp4
Format : MPEG-4
Format profile : Base Media / Version 2
Codec ID : mp42
File size : 24.6 MiB
Duration : 3mn 56s
Overall bit rate mode : Variable
Overall bit rate : 870 Kbps
Encoded date : UTC 2013-06-01 18:26:54
Tagged date : UTC 2013-06-01 18:26:54
Writing application : FormatFactory : www.pcfreetime.com

Video
ID : 201
Format : MPEG-4 Visual
Format profile : Simple@L1
Format settings, BVOP : No
Format settings, QPel : No
Format settings, GMC : No warppoints
Format settings, Matrix : Default (H.263)
Codec ID : 20
Duration : 3mn 56s
Bit rate mode : Variable
Bit rate : 743 Kbps
Maximum bit rate : 1 284 Kbps
Width : 480 pixels
Height : 360 pixels
Display aspect ratio : 4:3
Frame rate mode : Constant
Frame rate : 24.000 fps
Color space : YUV
Chroma subsampling : 4:2:0
Bit depth : 8 bits
Scan type : Progressive
Compression mode : Lossy
Bits/(Pixel*Frame) : 0.179
Stream size : 21.0 MiB (85%)
Writing library : Lavc53.8.0
Encoded date : UTC 2013-06-01 18:26:54
Tagged date : UTC 2013-06-01 18:26:55

Audio
ID : 101
Format : AAC
Format/Info : Advanced Audio Codec
Format profile : LC
Codec ID : 40
Duration : 3mn 56s
Bit rate mode : Variable
Bit rate : 125 Kbps
Maximum bit rate : 152 Kbps
Channel(s) : 2 channels
Channel positions : Front: L R
Sampling rate : 44.1 KHz
Compression mode : Lossy
Stream size : 3.53 MiB (14%)
Encoded date : UTC 2013-06-01 18:26:55
Tagged date : UTC 2013-06-01 18:26:55

Other #1
ID : 2
Type : Object description
Format : System
Codec ID : 1
Duration : 1s 0ms
Encoded date : UTC 2013-06-01 18:26:55
Tagged date : UTC 2013-06-01 18:26:55

Other #2
ID : 1
Type : Scene description
Format : System Core
Codec ID : 2
Duration : 1s 0ms
Encoded date : UTC 2013-06-01 18:26:55
Tagged date : UTC 2013-06-01 18:26:55


download

Pro zobrazení linků musíte být přihlášen!
Pokud ještě nemáte zaregistrovaný účet, můžete se zaregistrovat.

_________________
Obrázek

Pro zobrazení linků musíte být přihlášen!
Pokud ještě nemáte zaregistrovaný účet, můžete se zaregistrovat.


Nahoru
 Profil  
 Předmět příspěvku: videoklipy vyběr (1970 - 2017)
PříspěvekNapsal: 28 úno 2018 11:00 
BANNED

Registrován: 05 zář 2014 20:01
Příspěvky: 1281
Poděkoval: 4x
Poděkováno: 5x
W4A Money: 50745
Offline
Rytmus - elektro soky

Obrázek

kvalita

Citace:
General
Complete name : D:\up1\1\Rytmus - elektro soky.mp4
Format : MPEG-4
Format profile : Base Media / Version 2
Codec ID : mp42
File size : 53.5 MiB
Duration : 3mn 36s
Overall bit rate mode : Variable
Overall bit rate : 2 072 Kbps
Encoded date : UTC 2013-03-06 18:33:54
Tagged date : UTC 2013-03-06 18:33:54
Writing application : FormatFactory : www.pcfreetime.com

Video
ID : 201
Format : MPEG-4 Visual
Format profile : Simple@L1
Format settings, BVOP : No
Format settings, QPel : No
Format settings, GMC : No warppoints
Format settings, Matrix : Default (H.263)
Codec ID : 20
Duration : 3mn 36s
Bit rate mode : Variable
Bit rate : 1 950 Kbps
Maximum bit rate : 7 449 Kbps
Width : 1 280 pixels
Height : 720 pixels
Display aspect ratio : 16:9
Frame rate mode : Constant
Frame rate : 30.000 fps
Color space : YUV
Chroma subsampling : 4:2:0
Bit depth : 8 bits
Scan type : Progressive
Compression mode : Lossy
Bits/(Pixel*Frame) : 0.071
Stream size : 50.3 MiB (94%)
Writing library : Lavc53.8.0
Encoded date : UTC 2013-03-06 18:33:54
Tagged date : UTC 2013-03-06 18:33:55

Audio
ID : 101
Format : AAC
Format/Info : Advanced Audio Codec
Format profile : LC
Codec ID : 40
Duration : 3mn 36s
Bit rate mode : Variable
Bit rate : 119 Kbps
Maximum bit rate : 147 Kbps
Channel(s) : 2 channels
Channel positions : Front: L R
Sampling rate : 44.1 KHz
Compression mode : Lossy
Stream size : 3.06 MiB (6%)
Encoded date : UTC 2013-03-06 18:33:55
Tagged date : UTC 2013-03-06 18:33:55

Other #1
ID : 2
Type : Object description
Format : System
Codec ID : 1
Duration : 1s 0ms
Encoded date : UTC 2013-03-06 18:33:55
Tagged date : UTC 2013-03-06 18:33:55

Other #2
ID : 1
Type : Scene description
Format : System Core
Codec ID : 2
Duration : 1s 0ms
Encoded date : UTC 2013-03-06 18:33:55
Tagged date : UTC 2013-03-06 18:33:55


download

Pro zobrazení linků musíte být přihlášen!
Pokud ještě nemáte zaregistrovaný účet, můžete se zaregistrovat.

_________________
Obrázek

Pro zobrazení linků musíte být přihlášen!
Pokud ještě nemáte zaregistrovaný účet, můžete se zaregistrovat.


Nahoru
 Profil  
 Předmět příspěvku: videoklipy vyběr (1970 - 2017)
PříspěvekNapsal: 13 bře 2018 11:22 
BANNED

Registrován: 05 zář 2014 20:01
Příspěvky: 1281
Poděkoval: 4x
Poděkováno: 5x
W4A Money: 50745
Offline
Lostprophets - The Fake Sound Of Progress

Pro zobrazení linků musíte být přihlášen!
Pokud ještě nemáte zaregistrovaný účet, můžete se zaregistrovat.

_________________
Obrázek

Pro zobrazení linků musíte být přihlášen!
Pokud ještě nemáte zaregistrovaný účet, můžete se zaregistrovat.


Nahoru
 Profil  
 Předmět příspěvku: videoklipy vyběr (1970 - 2017)
PříspěvekNapsal: 13 bře 2018 13:13 
BANNED

Registrován: 05 zář 2014 20:01
Příspěvky: 1281
Poděkoval: 4x
Poděkováno: 5x
W4A Money: 50745
Offline
Padouch - Srdce a rozum acapella

Pro zobrazení linků musíte být přihlášen!
Pokud ještě nemáte zaregistrovaný účet, můžete se zaregistrovat.

_________________
Obrázek

Pro zobrazení linků musíte být přihlášen!
Pokud ještě nemáte zaregistrovaný účet, můžete se zaregistrovat.


Nahoru
 Profil  
Zobrazit příspěvky za předchozí:  Seřadit podle  
Odpovědět na téma  [ Příspěvků: 6 ] 

Všechny časy jsou v UTC + 1 hodina


Kdo je online

Uživatelé procházející toto fórum: Žádní registrovaní uživatelé a 1 návštěvník



Nemůžete zakládat nová témata v tomto fóru
Nemůžete odpovídat v tomto fóru
Nemůžete upravovat své příspěvky v tomto fóru
Nemůžete mazat své příspěvky v tomto fóru
Nemůžete přikládat soubory v tomto fóru

Přejít na:  

Time : 0.118s | 24 Queries | GZIP : Off

Filmy ke stažení zdarma | Cheaty | Pocket PC | Android | Windows Phone 7 | iGO 8 | Apple iPhone | Symbian Smartphone | ROM | Windows Mobile | BlackBerry | Palm | Java | Warez mobile forum