Právě je 17 pro 2017 03:26

Všechny časy jsou v UTC + 1 hodina



videoklipy vyběr (1970 - 2017)

[ Moderátorský panel ]



Odeslat nové téma Odpovědět na téma  [ Příspěvků: 18 ]  Přejít na stránku 1, 2  Další
Autor Zpráva
 Předmět příspěvku: videoklipy vyběr (1970 - 2017)
PříspěvekNapsal: 20 led 2016 11:44 
Navigátor

Registrován: 05 zář 2014 20:01
Příspěvky: 1242
Poděkoval: 4x
Poděkováno: 3x
W4A Money: 44010
Offline
Občas i jim

Obrázek

kvalita

Pro zobrazení linků musíte být přihlášen!
Pokud ještě nemáte zaregistrovaný účet, můžete se zaregistrovat.


download

Pro zobrazení linků musíte být přihlášen!
Pokud ještě nemáte zaregistrovaný účet, můžete se zaregistrovat.


Naposledy upravil warup dne 09 črc 2017 08:48, celkově upraveno 1

_________________
Obrázek

Pro zobrazení linků musíte být přihlášen!
Pokud ještě nemáte zaregistrovaný účet, můžete se zaregistrovat.


Nahoru
 Profil  
 Předmět příspěvku: videoklipy vyběr (1970 - 2016)
PříspěvekNapsal: 20 led 2016 11:47 
Navigátor

Registrován: 05 zář 2014 20:01
Příspěvky: 1242
Poděkoval: 4x
Poděkováno: 3x
W4A Money: 44010
Offline
Pálíme oheň s Kryšpínem

Obrázek

kvalita

Pro zobrazení linků musíte být přihlášen!
Pokud ještě nemáte zaregistrovaný účet, můžete se zaregistrovat.


download

Pro zobrazení linků musíte být přihlášen!
Pokud ještě nemáte zaregistrovaný účet, můžete se zaregistrovat.

_________________
Obrázek

Pro zobrazení linků musíte být přihlášen!
Pokud ještě nemáte zaregistrovaný účet, můžete se zaregistrovat.


Nahoru
 Profil  
 Předmět příspěvku: videoklipy vyběr (1970 - 2016)
PříspěvekNapsal: 24 led 2016 15:52 
Navigátor

Registrován: 05 zář 2014 20:01
Příspěvky: 1242
Poděkoval: 4x
Poděkováno: 3x
W4A Money: 44010
Offline
Pro zobrazení linků musíte být přihlášen!
Pokud ještě nemáte zaregistrovaný účet, můžete se zaregistrovat.

_________________
Obrázek

Pro zobrazení linků musíte být přihlášen!
Pokud ještě nemáte zaregistrovaný účet, můžete se zaregistrovat.


Nahoru
 Profil  
 Předmět příspěvku: videoklipy vyběr (1970 - 2016)
PříspěvekNapsal: 24 led 2016 16:13 
Navigátor

Registrován: 05 zář 2014 20:01
Příspěvky: 1242
Poděkoval: 4x
Poděkováno: 3x
W4A Money: 44010
Offline
Pro zobrazení linků musíte být přihlášen!
Pokud ještě nemáte zaregistrovaný účet, můžete se zaregistrovat.

_________________
Obrázek

Pro zobrazení linků musíte být přihlášen!
Pokud ještě nemáte zaregistrovaný účet, můžete se zaregistrovat.


Nahoru
 Profil  
 Předmět příspěvku: videoklipy vyběr (1970 - 2016)
PříspěvekNapsal: 26 led 2016 17:25 
Navigátor

Registrován: 05 zář 2014 20:01
Příspěvky: 1242
Poděkoval: 4x
Poděkováno: 3x
W4A Money: 44010
Offline
Pro zobrazení linků musíte být přihlášen!
Pokud ještě nemáte zaregistrovaný účet, můžete se zaregistrovat.

_________________
Obrázek

Pro zobrazení linků musíte být přihlášen!
Pokud ještě nemáte zaregistrovaný účet, můžete se zaregistrovat.


Nahoru
 Profil  
 Předmět příspěvku: videoklipy vyběr (1970 - 2016)
PříspěvekNapsal: 26 led 2016 17:50 
Navigátor

Registrován: 05 zář 2014 20:01
Příspěvky: 1242
Poděkoval: 4x
Poděkováno: 3x
W4A Money: 44010
Offline
Pro zobrazení linků musíte být přihlášen!
Pokud ještě nemáte zaregistrovaný účet, můžete se zaregistrovat.

_________________
Obrázek

Pro zobrazení linků musíte být přihlášen!
Pokud ještě nemáte zaregistrovaný účet, můžete se zaregistrovat.


Nahoru
 Profil  
 Předmět příspěvku: videoklipy vyběr (1970 - 2016)
PříspěvekNapsal: 27 led 2016 13:15 
Navigátor

Registrován: 05 zář 2014 20:01
Příspěvky: 1242
Poděkoval: 4x
Poděkováno: 3x
W4A Money: 44010
Offline
Pro zobrazení linků musíte být přihlášen!
Pokud ještě nemáte zaregistrovaný účet, můžete se zaregistrovat.

_________________
Obrázek

Pro zobrazení linků musíte být přihlášen!
Pokud ještě nemáte zaregistrovaný účet, můžete se zaregistrovat.


Nahoru
 Profil  
 Předmět příspěvku: videoklipy vyběr (1970 - 2016)
PříspěvekNapsal: 25 bře 2016 09:11 
Navigátor

Registrován: 05 zář 2014 20:01
Příspěvky: 1242
Poděkoval: 4x
Poděkováno: 3x
W4A Money: 44010
Offline
1 Rihanna - 2011 remix new ( crazy Music )

Obrázek

kvalita

Pro zobrazení linků musíte být přihlášen!
Pokud ještě nemáte zaregistrovaný účet, můžete se zaregistrovat.


download

Pro zobrazení linků musíte být přihlášen!
Pokud ještě nemáte zaregistrovaný účet, můžete se zaregistrovat.

_________________
Obrázek

Pro zobrazení linků musíte být přihlášen!
Pokud ještě nemáte zaregistrovaný účet, můžete se zaregistrovat.


Nahoru
 Profil  
 Předmět příspěvku: videoklipy vyběr (1970 - 2016)
PříspěvekNapsal: 28 pro 2016 10:39 
Navigátor

Registrován: 05 zář 2014 20:01
Příspěvky: 1242
Poděkoval: 4x
Poděkováno: 3x
W4A Money: 44010
Offline
1 Rihanna - 2011 remix new ( crazy Music )

Obrázek

kvalita

Pro zobrazení linků musíte být přihlášen!
Pokud ještě nemáte zaregistrovaný účet, můžete se zaregistrovat.


download

Pro zobrazení linků musíte být přihlášen!
Pokud ještě nemáte zaregistrovaný účet, můžete se zaregistrovat.

_________________
Obrázek

Pro zobrazení linků musíte být přihlášen!
Pokud ještě nemáte zaregistrovaný účet, můžete se zaregistrovat.


Nahoru
 Profil  
 Předmět příspěvku: videoklipy vyběr (1970 - 2016)
PříspěvekNapsal: 03 črc 2017 12:23 
Navigátor

Registrován: 05 zář 2014 20:01
Příspěvky: 1242
Poděkoval: 4x
Poděkováno: 3x
W4A Money: 44010
Offline
David Guetta - Titanium ft. Sia
Obrázek

kvalita
Citace:
General
Complete name : D:\up\1\David Guetta - Titanium ft. Sia.mp4
Format : MPEG-4
Format profile : Base Media
Codec ID : isom (isom/iso2/mp41)
File size : 21.6 MiB
Duration : 3 min 51 s
Overall bit rate mode : Variable
Overall bit rate : 780 kb/s
Encoded date : UTC 2014-09-14 07:01:22
Tagged date : UTC 2014-09-14 07:01:22
Writing application : Lavf51.12.1

Video
ID : 1
Format : MPEG-4 Visual
Format profile : Simple@L1
Format settings, BVOP : No
Format settings, QPel : No
Format settings, GMC : No warppoints
Format settings, Matrix : Default (H.263)
Codec ID : 20
Duration : 3 min 51 s
Bit rate : 646 kb/s
Width : 320 pixels
Height : 240 pixels
Display aspect ratio : 2.40:1
Frame rate mode : Constant
Frame rate : 15.000 FPS
Color space : YUV
Chroma subsampling : 4:2:0
Bit depth : 8 bits
Scan type : Progressive
Compression mode : Lossy
Bits/(Pixel*Frame) : 0.561
Stream size : 17.9 MiB (83%)
Writing library : Lavc51.40.4
Encoded date : UTC 2014-09-14 07:01:22
Tagged date : UTC 2014-09-14 07:01:22

Audio
ID : 2
Format : AAC
Format/Info : Advanced Audio Codec
Format profile : LC
Codec ID : 40
Duration : 3 min 51 s
Bit rate mode : Variable
Bit rate : 132 kb/s
Channel(s) : 2 channels
Channel positions : Front: L R
Sampling rate : 44.1 kHz
Frame rate : 43.066 FPS (1024 spf)
Compression mode : Lossy
Stream size : 3.60 MiB (17%)
Encoded date : UTC 2014-09-14 07:01:22
Tagged date : UTC 2014-09-14 07:01:22


download
Pro zobrazení linků musíte být přihlášen!
Pokud ještě nemáte zaregistrovaný účet, můžete se zaregistrovat.

_________________
Obrázek

Pro zobrazení linků musíte být přihlášen!
Pokud ještě nemáte zaregistrovaný účet, můžete se zaregistrovat.


Nahoru
 Profil  
 Předmět příspěvku: videoklipy vyběr (1970 - 2016)
PříspěvekNapsal: 06 črc 2017 11:12 
Navigátor

Registrován: 05 zář 2014 20:01
Příspěvky: 1242
Poděkoval: 4x
Poděkováno: 3x
W4A Money: 44010
Offline
Vanity - Gipsy Moves (1080p)

Obrázek

kvalita

Citace:
General
Unique ID : 239690772282763168913187809783047113125 (0xB452C37989A44E3B8FC93F362B81C9A5)
Complete name : D:\up1\Vanity - Gipsy Moves (1080p).mkv
Format : Matroska
Format version : Version 2
File size : 112 MiB
Duration : 3 min 4 s
Overall bit rate : 5 122 kb/s
Encoded date : UTC 2010-12-26 09:45:46
Writing application : mkvmerge v2.9.0 ('Moanin'') built on May 22 2009 17:46:31
Writing library : libebml v0.7.7 + libmatroska v0.8.1

Video
ID : 1
Format : AVC
Format/Info : Advanced Video Codec
Format profile : High@L4
Format settings, CABAC : Yes
Format settings, ReFrames : 1 frame
Codec ID : V_MPEG4/ISO/AVC
Duration : 3 min 4 s
Width : 1 920 pixels
Height : 1 080 pixels
Display aspect ratio : 16:9
Frame rate mode : Constant
Frame rate : 25.000 FPS
Color space : YUV
Chroma subsampling : 4:2:0
Bit depth : 8 bits
Scan type : Progressive
Default : Yes
Forced : No

Audio
ID : 2
Format : AAC
Format/Info : Advanced Audio Codec
Format profile : LC
Codec ID : A_AAC
Duration : 3 min 4 s
Channel(s) : 2 channels
Channel positions : Front: L R
Sampling rate : 44.1 kHz
Frame rate : 43.066 FPS (1024 spf)
Compression mode : Lossy
Default : Yes
Forced : No


download

Pro zobrazení linků musíte být přihlášen!
Pokud ještě nemáte zaregistrovaný účet, můžete se zaregistrovat.

_________________
Obrázek

Pro zobrazení linků musíte být přihlášen!
Pokud ještě nemáte zaregistrovaný účet, můžete se zaregistrovat.


Nahoru
 Profil  
 Předmět příspěvku: videoklipy vyběr (1970 - 2017)
PříspěvekNapsal: 09 črc 2017 08:50 
Navigátor

Registrován: 05 zář 2014 20:01
Příspěvky: 1242
Poděkoval: 4x
Poděkováno: 3x
W4A Money: 44010
Offline
Protiva--Prostorno

Obrázek

kvalita

Citace:
General
Complete name : D:\up\Protiva--Prostorno.mp4
Format : MPEG-4
Format profile : Base Media
Codec ID : isom (isom/iso2/avc1/mp41)
File size : 2.82 MiB
Duration : 2 min 15 s
Overall bit rate : 175 kb/s
Writing application : Lavf56.25.101

Video
ID : 1
Format : AVC
Format/Info : Advanced Video Codec
Format profile : High@L2.2
Format settings, CABAC : Yes
Format settings, ReFrames : 4 frames
Codec ID : avc1
Codec ID/Info : Advanced Video Coding
Duration : 2 min 14 s
Bit rate : 48.3 kb/s
Nominal bit rate : 52.0 kb/s
Width : 640 pixels
Height : 360 pixels
Display aspect ratio : 16:9
Frame rate mode : Constant
Frame rate : 6.000 FPS
Color space : YUV
Chroma subsampling : 4:2:0
Bit depth : 8 bits
Scan type : Progressive
Bits/(Pixel*Frame) : 0.035
Stream size : 792 KiB (27%)
Writing library : x264 core 144 r2533 c8a773e
Encoding settings : cabac=1 / ref=3 / deblock=1:0:0 / analyse=0x3:0x113 / me=hex / subme=7 / psy=1 / psy_rd=1.00:0.00 / mixed_ref=1 / me_range=16 / chroma_me=1 / trellis=1 / 8x8dct=1 / cqm=0 / deadzone=21,11 / fast_pskip=1 / chroma_qp_offset=-2 / threads=6 / lookahead_threads=1 / sliced_threads=0 / nr=0 / decimate=1 / interlaced=0 / bluray_compat=0 / constrained_intra=0 / bframes=3 / b_pyramid=2 / b_adapt=1 / b_bias=0 / direct=1 / weightb=1 / open_gop=0 / weightp=2 / keyint=250 / keyint_min=6 / scenecut=40 / intra_refresh=0 / rc_lookahead=40 / rc=abr / mbtree=1 / bitrate=52 / ratetol=1.0 / qcomp=0.60 / qpmin=0 / qpmax=69 / qpstep=4 / ip_ratio=1.40 / aq=1:1.00

Audio
ID : 2
Format : AAC
Format/Info : Advanced Audio Codec
Format profile : LC
Codec ID : 40
Duration : 2 min 15 s
Duration_LastFrame : -10 ms
Bit rate mode : Constant
Bit rate : 125 kb/s
Channel(s) : 2 channels
Channel positions : Front: L R
Sampling rate : 48.0 kHz
Frame rate : 46.875 FPS (1024 spf)
Compression mode : Lossy
Stream size : 2.01 MiB (71%)
Default : Yes
Alternate group : 1


download

Pro zobrazení linků musíte být přihlášen!
Pokud ještě nemáte zaregistrovaný účet, můžete se zaregistrovat.

_________________
Obrázek

Pro zobrazení linků musíte být přihlášen!
Pokud ještě nemáte zaregistrovaný účet, můžete se zaregistrovat.


Nahoru
 Profil  
 Předmět příspěvku: videoklipy vyběr (1970 - 2017)
PříspěvekNapsal: 09 črc 2017 09:07 
Navigátor

Registrován: 05 zář 2014 20:01
Příspěvky: 1242
Poděkoval: 4x
Poděkováno: 3x
W4A Money: 44010
Offline
HPIM5563

Obrázek

kvalita

Citace:
General
Complete name : D:\up\HPIM5563.MPG
Format : MPEG-PS
File size : 25.3 MiB
Duration : 34 s 480 ms
Overall bit rate mode : Variable
Overall bit rate : 6 162 kb/s

Video
ID : 224 (0xE0)
Format : MPEG Video
Format version : Version 1
Format settings, BVOP : No
Format settings, Matrix : Default
Format settings, GOP : N=10
Duration : 34 s 458 ms
Bit rate mode : Variable
Bit rate : 5 943 kb/s
Width : 640 pixels
Height : 480 pixels
Display aspect ratio : 4:3
Frame rate : 24.000 FPS
Color space : YUV
Chroma subsampling : 4:2:0
Bit depth : 8 bits
Scan type : Progressive
Compression mode : Lossy
Bits/(Pixel*Frame) : 0.806
Time code of first frame : 00:00:00:00
Time code source : Group of pictures header
GOP, Open/Closed : Closed
Stream size : 24.4 MiB (96%)

Audio
ID : 192 (0xC0)
Format : MPEG Audio
Format version : Version 1
Format profile : Layer 2
Duration : 34 s 480 ms
Bit rate mode : Constant
Bit rate : 96.0 kb/s
Channel(s) : 1 channel
Sampling rate : 44.1 kHz
Compression mode : Lossy
Delay relative to video : 72 ms
Stream size : 404 KiB (2%)

Text
ID : 189 (0xBD)
Format : RLE
Format/Info : Run-length encoding

Menu


download

Pro zobrazení linků musíte být přihlášen!
Pokud ještě nemáte zaregistrovaný účet, můžete se zaregistrovat.

_________________
Obrázek

Pro zobrazení linků musíte být přihlášen!
Pokud ještě nemáte zaregistrovaný účet, můžete se zaregistrovat.


Nahoru
 Profil  
 Předmět příspěvku: videoklipy vyběr (1970 - 2017)
PříspěvekNapsal: 21 črc 2017 07:36 
Navigátor

Registrován: 05 zář 2014 20:01
Příspěvky: 1242
Poděkoval: 4x
Poděkováno: 3x
W4A Money: 44010
Offline
videoklipy

Obrázek

kvalita

Citace:
General
Complete name : D:\up\videoklipy\Cvi_ený-králík-otvíra_-dopis_.flv
Format : Flash Video
File size : 2.22 MiB
Duration : 26 s 500 ms
Overall bit rate : 689 kb/s
httphostheader : v3.cache3.c.youtube.com

Video
Format : AVC
Format/Info : Advanced Video Codec
Format profile : Main@L3
Format settings, CABAC : Yes
Format settings, ReFrames : 3 frames
Format settings, GOP : M=1, N=15
Codec ID : 7
Duration : 26 s 533 ms
Bit rate : 617 kb/s
Width : 480 pixels
Height : 360 pixels
Display aspect ratio : 4:3
Frame rate mode : Constant
Frame rate : 30.038 FPS
Original frame rate : 30.000 FPS
Color space : YUV
Chroma subsampling : 4:2:0
Bit depth : 8 bits
Scan type : Progressive
Bits/(Pixel*Frame) : 0.119
Stream size : 1.95 MiB (88%)

Audio
Format : AAC
Format/Info : Advanced Audio Codec
Format profile : LC
Codec ID : 10
Duration : 27 s 51 ms
Bit rate : 74.8 kb/s
Channel(s) : 2 channels
Channel(s)_Original : 1 channel
Channel positions : Front: C
Sampling rate : 44.1 kHz
Frame rate : 43.066 FPS (1024 spf)
Compression mode : Lossy
Stream size : 247 KiB (11%)



tracklist

Citace:
Cvi_ený-králík-otvíra_-dopis_
Je třeba zabít Tafroba


download

Pro zobrazení linků musíte být přihlášen!
Pokud ještě nemáte zaregistrovaný účet, můžete se zaregistrovat.

_________________
Obrázek

Pro zobrazení linků musíte být přihlášen!
Pokud ještě nemáte zaregistrovaný účet, můžete se zaregistrovat.


Nahoru
 Profil  
 Předmět příspěvku: videoklipy vyběr (1970 - 2017)
PříspěvekNapsal: 26 črc 2017 14:08 
Navigátor

Registrován: 05 zář 2014 20:01
Příspěvky: 1242
Poděkoval: 4x
Poděkováno: 3x
W4A Money: 44010
Offline
Hip Hop Instrumental - Magic City

Obrázek

kvalita

Citace:
General
Complete name : D:\up\1\Hip Hop Instrumental - Magic City\VIDEO_TS\VTS_01_1.VOB
Format : MPEG-PS
File size : 37.6 MiB
Duration : 2 min 19 s
Overall bit rate mode : Variable
Overall bit rate : 2 258 kb/s

Video
ID : 224 (0xE0)
Format : MPEG Video
Format version : Version 2
Format profile : Main@Main
Format settings, BVOP : Yes
Format settings, Matrix : Default
Format settings, GOP : M=3, N=15
Duration : 2 min 19 s
Bit rate mode : Variable
Bit rate : 1 957 kb/s
Maximum bit rate : 9 000 kb/s
Width : 720 pixels
Height : 576 pixels
Display aspect ratio : 16:9
Frame rate : 25.000 FPS
Standard : PAL
Color space : YUV
Chroma subsampling : 4:2:0
Bit depth : 8 bits
Scan type : Progressive
Compression mode : Lossy
Bits/(Pixel*Frame) : 0.189
Time code of first frame : 00:00:00:00
Time code source : Group of pictures header
GOP, Open/Closed : Open
Stream size : 32.6 MiB (87%)

Audio
ID : 189 (0xBD)-128 (0x80)
Format : AC-3
Format/Info : Audio Coding 3
Mode extension : CM (complete main)
Format settings, Endianness : Big
Muxing mode : DVD-Video
Duration : 2 min 19 s
Bit rate mode : Constant
Bit rate : 256 kb/s
Channel(s) : 2 channels
Channel positions : Front: L R
Sampling rate : 48.0 kHz
Frame rate : 31.250 FPS (1536 spf)
Compression mode : Lossy
Stream size : 4.26 MiB (11%)

Menu


download

Pro zobrazení linků musíte být přihlášen!
Pokud ještě nemáte zaregistrovaný účet, můžete se zaregistrovat.

_________________
Obrázek

Pro zobrazení linků musíte být přihlášen!
Pokud ještě nemáte zaregistrovaný účet, můžete se zaregistrovat.


Nahoru
 Profil  
Zobrazit příspěvky za předchozí:  Seřadit podle  
Odpovědět na téma  [ Příspěvků: 18 ]  Přejít na stránku 1, 2  Další

Všechny časy jsou v UTC + 1 hodina


Kdo je online

Uživatelé procházející toto fórum: Žádní registrovaní uživatelé a 1 návštěvník



Nemůžete zakládat nová témata v tomto fóru
Nemůžete odpovídat v tomto fóru
Nemůžete upravovat své příspěvky v tomto fóru
Nemůžete mazat své příspěvky v tomto fóru
Nemůžete přikládat soubory v tomto fóru

Přejít na:  

Time : 0.206s | 33 Queries | GZIP : Off

Filmy ke stažení zdarma | Cheaty | Pocket PC | Android | Windows Phone 7 | iGO 8 | Apple iPhone | Symbian Smartphone | ROM | Windows Mobile | BlackBerry | Palm | Java | Warez mobile forum