Tafrob

Hudební dvd ripy & klipy

Moderátor: KlopuX

Odpovědět
warup
Navigátor
Navigátor
Příspěvky: 1292
Registrován: 05 zář 2014 21:01
Dal poděkování: 2 poděkování
Dostal poděkování: 1 poděkování

Tafrob

Příspěvek od warup » 09 zář 2014 21:18

Tafrob _ Jay Diesel - Bratři jak se patří (official video)

Obrázek

info

Kód: Vybrat vše

http://beatzone.cz/component/find/?do=feed&keyword=Tafrob
Kupuj singl na iTunes: http://itunes.apple.com/cz/album/uz-to-pal/id547274573 Music video by Tafrob & Jay Diesel performing Bratři jak se patří. (C) 2012 PVP...
kvalita
General
Complete name : D:\upload\4\Tafrob _ Jay Diesel - Bratři jak se patří (official video).mp4
Format : MPEG-4
Format profile : Base Media / Version 2
Codec ID : mp42
File size : 16.9 MiB
Duration : 3mn 12s
Overall bit rate mode : Variable
Overall bit rate : 736 Kbps
Encoded date : UTC 2012-08-20 18:19:25
Tagged date : UTC 2012-08-20 18:19:25
gsst : 0
gstd : 192886
gssd : BADC20164HH1346584368450881
gshh : o-o---preferred---prg01s04---v4---lscache6.c.youtube.com

Video
ID : 1
Format : AVC
Format/Info : Advanced Video Codec
Format profile : Baseline@L3.0
Format settings, CABAC : No
Format settings, ReFrames : 1 frame
Codec ID : avc1
Codec ID/Info : Advanced Video Coding
Duration : 3mn 12s
Bit rate : 637 Kbps
Maximum bit rate : 1 695 Kbps
Width : 640 pixels
Height : 360 pixels
Display aspect ratio : 16:9
Frame rate mode : Constant
Frame rate : 23.976 fps
Color space : YUV
Chroma subsampling : 4:2:0
Bit depth : 8 bits
Scan type : Progressive
Bits/(Pixel*Frame) : 0.115
Stream size : 14.6 MiB (87%)
Tagged date : UTC 2012-08-20 18:19:25

Audio
ID : 2
Format : AAC
Format/Info : Advanced Audio Codec
Format profile : LC
Codec ID : 40
Duration : 3mn 12s
Bit rate mode : Variable
Bit rate : 96.0 Kbps
Maximum bit rate : 104 Kbps
Channel(s) : 2 channels
Channel positions : Front: L R
Sampling rate : 44.1 KHz
Compression mode : Lossy
Stream size : 2.21 MiB (13%)
Title : IsoMedia File Produced by Google, 5-11-2011
Encoded date : UTC 2012-08-20 18:19:25
Tagged date : UTC 2012-08-20 18:19:25
download

Kód: Vybrat vše

http://datoid.cz/MukohF/tafrob-jay-diesel-bratri-jak-se-patri-official-video-mp4
Obrázek

Kód: Vybrat vše

http://datoid.cz/?p=143827  
Odpovědět

Zpět na „Hudební“