Rytmus: Zlatokopky (hudební videoklip) (2010)

Hudební dvd ripy & klipy

Moderátor: KlopuX

Odpovědět
warup
Navigátor
Navigátor
Příspěvky: 1320
Registrován: 05 zář 2014 21:01
Dal poděkování: 2 poděkování
Dostal poděkování: 1 poděkování

Rytmus: Zlatokopky (hudební videoklip) (2010)

Příspěvek od warup » 04 lis 2016 17:35

Rytmus - Zlatokopky (OFFICIAL CLIP) 720p (By Prudak)

Obrázek
Obrázek
Obrázek

info

Kód: Vybrat vše

http://www.csfd.cz/film/379110-rytmus-zlatokopky/komentare/
kvalita

Kód: Vybrat vše

General
Complete name               : E:\up\Rytmus - Zlatokopky (OFFICIAL CLIP) 720p (By Prudak).mp4
Format                      : MPEG-4
Format profile              : Base Media / Version 2
Codec ID                    : mp42
File size                   : 63.7 MiB
Duration                    : 4mn 18s
Overall bit rate mode       : Variable
Overall bit rate            : 2 070 Kbps
Encoded date                : UTC 2010-08-03 22:20:03
Tagged date                 : UTC 2010-08-03 22:20:03
gsst                        : 0
gstd                        : 258010
gssd                        : B4A7DD0A8HH1280963179748139
gshh                        : v8.cache6.c.youtube.com

Video
ID                          : 1
Format                      : AVC
Format/Info                 : Advanced Video Codec
Format profile              : High@L3.1
Format settings, CABAC      : No
Format settings, ReFrames   : 1 frame
Codec ID                    : avc1
Codec ID/Info               : Advanced Video Coding
Duration                    : 4mn 18s
Bit rate                    : 1 936 Kbps
Maximum bit rate            : 3 824 Kbps
Width                       : 1 280 pixels
Height                      : 720 pixels
Display aspect ratio        : 16:9
Frame rate mode             : Variable
Frame rate                  : 30.000 fps
Original frame rate         : 29.970 fps
Minimum frame rate          : 29.412 fps
Maximum frame rate          : 55.556 fps
Color space                 : YUV
Chroma subsampling          : 4:2:0
Bit depth                   : 8 bits
Scan type                   : Progressive
Bits/(Pixel*Frame)          : 0.070
Stream size                 : 59.5 MiB (94%)
Encoded date                : UTC 1970-01-01 00:00:00
Tagged date                 : UTC 2010-08-03 22:20:14

Audio
ID                          : 2
Format                      : AAC
Format/Info                 : Advanced Audio Codec
Format profile              : LC
Codec ID                    : 40
Duration                    : 4mn 17s
Bit rate mode               : Variable
Bit rate                    : 127 Kbps
Maximum bit rate            : 161 Kbps
Channel(s)                  : 2 channels
Channel positions           : Front: L R
Sampling rate               : 44.1 KHz
Compression mode            : Lossy
Stream size                 : 3.91 MiB (6%)
Title                       : (C) 2007 Google Inc. v08.13.2007.
Encoded date                : UTC 2010-08-03 22:20:10
Tagged date                 : UTC 2010-08-03 22:20:14
download

Kód: Vybrat vše

https://bitster.cz/file/5537f0/Rytmus_-_Zlatokopky_-OFFICIAL_CLIP-_720p_-By_Prudak--mp4
Obrázek

Kód: Vybrat vše

http://datoid.cz/?p=143827  
Odpovědět

Zpět na „Hudební“