Právě je 22 úno 2017 14:38

Všechny časy jsou v UTC + 1 hodina



Rytmus - Technotronic Flow

[ Moderátorský panel ]



Odeslat nové téma Odpovědět na téma  [ Příspěvek: 1 ] 
Autor Zpráva
 Předmět příspěvku: Rytmus - Technotronic Flow
PříspěvekNapsal: 24 kvě 2011 12:51 
Radista
Uživatelský avatar

Registrován: 14 led 2009 16:47
Příspěvky: 174
Poděkoval: 0 x
Poděkováno: 16x
W4A Money: 5840
Offline
Mad Skill feat. Rytmus - Technotronic Flow
Release:Mad.Skill.feat.Rytmus-Technotronic.Flow.Full.HD.1080p.MPEG-4.AAC


Obrázek
Obrázek


Obrázek
General
Complete name :Dj Mad Skill feat. Rytmus - Technotronic Flow 1080p.mp4
Format : MPEG-4
File size : 147 MiB
Duration : 5mn 17s
Overall bit rate : 3 894 Kbps

Video
Format : AVC
Format/Info : Advanced Video Codec
Duration : 5mn 17s
Bit rate : 8 270 Kbps
Width : 1 920 pixels
Height : 1 080 pixels
Display aspect ratio : 16:9
Frame rate : 25.000 fps
Bit depth : 8 bits
Scan type : Progressive
Bits/(Pixel*Frame) : 0.072
Stream size : 142 MiB (96%)

Audio
Format : AAC
Format/Info : Advanced Audio Codec
Duration : 5mn 17s
Bit rate : 200 Kbps
Stream size : 5.37 MiB (4%)
Obrázek
Obrázek
Pro zobrazení linků musíte být přihlášen!
Pokud ještě nemáte zaregistrovaný účet, můžete se zaregistrovat.

Obrázek
Pro zobrazení linků musíte být přihlášen!
Pokud ještě nemáte zaregistrovaný účet, můžete se zaregistrovat.

Obrázek
Pro zobrazení linků musíte být přihlášen!
Pokud ještě nemáte zaregistrovaný účet, můžete se zaregistrovat.


------------------------------------------------------------------------------------------------------------------------------------------------------------------------------------------------------------------------------------------------------------------------------------------------------------------------------------------------------------------

Mad Skill feat. Rytmus - Technotronic Flow - MP3 only this
Obrázek

Size:. .: 8.6 MB
Bit Rate:. .: 320 kbps
Sample Rate:. .: 48,000 kHz

Obrázek
Pro zobrazení linků musíte být přihlášen!
Pokud ještě nemáte zaregistrovaný účet, můžete se zaregistrovat.

Obrázek
Pro zobrazení linků musíte být přihlášen!
Pokud ještě nemáte zaregistrovaný účet, můžete se zaregistrovat.

Obrázek
Pro zobrazení linků musíte být přihlášen!
Pokud ještě nemáte zaregistrovaný účet, můžete se zaregistrovat.

_________________
Cez Leto REUPLOADY Nevykonávam

...:::Ak sa ti páči môj príspevok stačí poďakovať:::...

Obrázek



Nahoru
 Profil  
Zobrazit příspěvky za předchozí:  Seřadit podle  
Odpovědět na téma  [ Příspěvek: 1 ] 

Všechny časy jsou v UTC + 1 hodina


Kdo je online

Uživatelé procházející toto fórum: Žádní registrovaní uživatelé a 2 návštevníků



Nemůžete zakládat nová témata v tomto fóru
Nemůžete odpovídat v tomto fóru
Nemůžete upravovat své příspěvky v tomto fóru
Nemůžete mazat své příspěvky v tomto fóru
Nemůžete přikládat soubory v tomto fóru

Přejít na:  

Time : 0.105s | 17 Queries | GZIP : Off

Filmy ke stažení zdarma | Cheaty | Pocket PC | Android | Windows Phone 7 | iGO 8 | Apple iPhone | Symbian Smartphone | ROM | Windows Mobile | BlackBerry | Palm | Java | Warez mobile forum