Právě je 17 říj 2017 08:59

Všechny časy jsou v UTC + 1 hodina



Mad PeeT

[ Moderátorský panel ]



Odeslat nové téma Odpovědět na téma  [ Příspěvek: 1 ] 
Autor Zpráva
 Předmět příspěvku: Mad PeeT
PříspěvekNapsal: 09 zář 2014 20:26 
Navigátor

Registrován: 05 zář 2014 20:01
Příspěvky: 1062
Poděkoval: 4x
Poděkováno: 3x
W4A Money: 37170
Offline
Mad PeeT ft. SharkaSs - Sami Sebou [OFFICIAL VIDEO]

Obrázek

info

Pro zobrazení linků musíte být přihlášen!
Pokud ještě nemáte zaregistrovaný účet, můžete se zaregistrovat.


Citace:
Ke stažení (AUDIO) http://bit.ly/1fun5Bj
Ke stažení (VIDEO) http://bit.ly/18EvQd8
-
Text,rap: Mad PeeT & SharkaSs
Beat odkoupen od: Tantu Beats
Mix,mastering: BeatLife Studio
Video: PJay Production
Prostory: Fotoateliér Chodov, Praha
----------------------------------------­--------------------
► Mad PeeT
https://www.facebook.com/madpeetOFFICIAL

► SharkaSs
https://www.facebook.com/rapperkashar...

► Tantu Beats
https://www.facebook.com/Tantubeats

► BeatLife Studio
http://www.beatlifelabel.cz/

► PJay Production
https://www.facebook.com/pjayproduction

► Fototeliér Chodov, Praha
https://www.facebook.com/fotoatelierc...
----------------------------------------­---------------------
TEXT:

SLOKA 1
Jsem tak trochu mimo ale moc mi to neva,
Mad PeeT je svůj, přesně tak to je třeba,
Já nemám zapotřebí na sílu hrát cizí roli,
Je mi líto kámo, omlouvám se, takže vážně sorry..

Že pomlouvaj nás oni, to dělali i loni,
Mě telefon furt zvoní, já to dělám jen pro ni,
Pro moji hudbu, pro moje známý,
Pro lidi který mi plní mý plány,
Fajn věci se stávaj denně,
My bereme život otevřeně..

Tak nechte toho swagu, všichni jste jak roboti,
Buďte radši sami sebou a zvažte svoje hodnoty,
A dejte se hned do kopy, prosím vás o to,
Doufám že jsi pochopil, jestli ne, tak pochop !

A my nemáme miliony, sem tam ani dvacky,
A pořád nám ten život někdy naděluje facky,
Okolí nás má za ty nepořádný fracky,
Jedeme bordel celý noci a zvedáme pracky..

REFRÉN
Život není lehkej a to každej ví,
Neřešíme hovadiny, to je nejlepší,
Máme na to recept, zůstáváme svý,
Stále sami sebou a proto jsme V.I.P. ! (2x)

SLOKA 2
Nebudu jen další ovce podle vaší šablony,
Nechte si své pravidla, já nejedu s vámi závody,
Mezi vámi a námi stojí dvě obrovské závory,
Názory, co nás dělí na tábory s odlišnými fábory !

A já si připadám jak z ciziny,
Kolem starý bačkory, šprti a diliny,
Nebudu stejná, tak jako všetci,
Odmítám pomluvy a blbý kecy,
Od rádoby chytrejch,
Přitom maj v hlavě piliny..

Užíváme života dokud máme času habaděj,
Energie proudí, lítám jako čaroděj,
Málokteré věci beru vážně, bohužel,
Protože prostě nemám čas na to abych se trápil, oukej ?!

A sem tam se du přejíst, nemálo kdy se opiju,
A ve škole si myslej, že snad beru opium,
Ale stejně mám nápadu jako je lidí v Tokiu,
Dělám si to podle sebe, aspoň něco zažiju !


kvalita

Citace:
General
Complete name : D:\upload\5\Mad PeeT ft. SharkaSs - Sami Sebou [OFFICIAL VIDEO].mp4
Format : MPEG-4
Format profile : Base Media / Version 2
Codec ID : mp42
File size : 44.0 MiB
Duration : 2mn 38s
Overall bit rate mode : Variable
Overall bit rate : 2 330 Kbps
Encoded date : UTC 2013-12-11 20:53:56
Tagged date : UTC 2013-12-11 20:53:56
gsst : 0
gstd : 158405
gssd : BADC20A82HH1387892649679511
gshh : r8---sn-2gb7ln76.googlevideo.com

Video
ID : 1
Format : AVC
Format/Info : Advanced Video Codec
Format profile : High@L3.1
Format settings, CABAC : Yes
Format settings, ReFrames : 1 frame
Codec ID : avc1
Codec ID/Info : Advanced Video Coding
Duration : 2mn 38s
Bit rate : 2 136 Kbps
Maximum bit rate : 3 743 Kbps
Width : 1 280 pixels
Height : 720 pixels
Display aspect ratio : 16:9
Frame rate mode : Constant
Frame rate : 25.000 fps
Color space : YUV
Chroma subsampling : 4:2:0
Bit depth : 8 bits
Scan type : Progressive
Bits/(Pixel*Frame) : 0.093
Stream size : 40.3 MiB (92%)
Tagged date : UTC 2013-12-11 20:53:57

Audio
ID : 2
Format : AAC
Format/Info : Advanced Audio Codec
Format profile : LC
Codec ID : 40
Duration : 2mn 38s
Bit rate mode : Variable
Bit rate : 192 Kbps
Maximum bit rate : 201 Kbps
Channel(s) : 2 channels
Channel positions : Front: L R
Sampling rate : 44.1 KHz
Compression mode : Lossy
Stream size : 3.62 MiB (8%)
Title : IsoMedia File Produced by Google, 5-11-2011
Encoded date : UTC 2013-12-11 20:53:56
Tagged date : UTC 2013-12-11 20:53:57



download

Pro zobrazení linků musíte být přihlášen!
Pokud ještě nemáte zaregistrovaný účet, můžete se zaregistrovat.

_________________
Obrázek

Pro zobrazení linků musíte být přihlášen!
Pokud ještě nemáte zaregistrovaný účet, můžete se zaregistrovat.


Nahoru
 Profil  
Zobrazit příspěvky za předchozí:  Seřadit podle  
Odpovědět na téma  [ Příspěvek: 1 ] 

Všechny časy jsou v UTC + 1 hodina


Kdo je online

Uživatelé procházející toto fórum: Žádní registrovaní uživatelé a 1 návštěvník



Nemůžete zakládat nová témata v tomto fóru
Nemůžete odpovídat v tomto fóru
Nemůžete upravovat své příspěvky v tomto fóru
Nemůžete mazat své příspěvky v tomto fóru
Nemůžete přikládat soubory v tomto fóru

Přejít na:  

Time : 0.117s | 17 Queries | GZIP : Off

Filmy ke stažení zdarma | Cheaty | Pocket PC | Android | Windows Phone 7 | iGO 8 | Apple iPhone | Symbian Smartphone | ROM | Windows Mobile | BlackBerry | Palm | Java | Warez mobile forum