Právě je 22 úno 2017 14:36

Všechny časy jsou v UTC + 1 hodina



Lil seint

[ Moderátorský panel ]



Odeslat nové téma Odpovědět na téma  [ Příspěvek: 1 ] 
Autor Zpráva
 Předmět příspěvku: Lil seint
PříspěvekNapsal: 09 zář 2014 20:13 
Palubní radista

Registrován: 05 zář 2014 20:01
Příspěvky: 732
Poděkoval: 4x
Poděkováno: 1x
W4A Money: 24210
Offline
LiL_Seint_-_Bo_e_d_ky_OFFICIAL_VIDEOCLIP

Obrázek

info

Pro zobrazení linků musíte být přihlášen!
Pokud ještě nemáte zaregistrovaný účet, můžete se zaregistrovat.


Citace:
je to česky mc raper jako padouch ale ma lepši kvalitu a kruty videoklipy


kvalita

Citace:
General
Complete name : D:\upload\3\LiL_Seint_-_Bo_e_d_ky_OFFICIAL_VIDEOCLIP.mp4
Format : MPEG-4
Format profile : Base Media / Version 2
Codec ID : mp42
File size : 16.6 MiB
Duration : 3mn 30s
Overall bit rate mode : Variable
Overall bit rate : 664 Kbps
Encoded date : UTC 2012-01-17 18:20:27
Tagged date : UTC 2012-01-17 18:20:27
gsst : 0
gstd : 210093
gssd : B4A7DDA47HH1347398075320042
gshh : r7---fra07t13.c.youtube.com

Video
ID : 1
Format : AVC
Format/Info : Advanced Video Codec
Format profile : Baseline@L3.0
Format settings, CABAC : No
Format settings, ReFrames : 1 frame
Format settings, GOP : M=1, N=30
Codec ID : avc1
Codec ID/Info : Advanced Video Coding
Duration : 3mn 30s
Bit rate : 566 Kbps
Maximum bit rate : 1 464 Kbps
Width : 640 pixels
Height : 360 pixels
Display aspect ratio : 16:9
Frame rate mode : Constant
Frame rate : 25.000 fps
Color space : YUV
Chroma subsampling : 4:2:0
Bit depth : 8 bits
Scan type : Progressive
Bits/(Pixel*Frame) : 0.098
Stream size : 14.2 MiB (85%)
Tagged date : UTC 2012-01-17 18:20:27

Audio
ID : 2
Format : AAC
Format/Info : Advanced Audio Codec
Format profile : LC
Codec ID : 40
Duration : 3mn 29s
Bit rate mode : Variable
Bit rate : 96.0 Kbps
Maximum bit rate : 109 Kbps
Channel(s) : 2 channels
Channel positions : Front: L R
Sampling rate : 44.1 KHz
Compression mode : Lossy
Stream size : 2.40 MiB (14%)
Title : IsoMedia File Produced by Google, 5-11-2011
Encoded date : UTC 2012-01-17 18:20:27
Tagged date : UTC 2012-01-17 18:20:27



download

Pro zobrazení linků musíte být přihlášen!
Pokud ještě nemáte zaregistrovaný účet, můžete se zaregistrovat.

_________________
Obrázek

Pro zobrazení linků musíte být přihlášen!
Pokud ještě nemáte zaregistrovaný účet, můžete se zaregistrovat.


Nahoru
 Profil  
Zobrazit příspěvky za předchozí:  Seřadit podle  
Odpovědět na téma  [ Příspěvek: 1 ] 

Všechny časy jsou v UTC + 1 hodina


Kdo je online

Uživatelé procházející toto fórum: Žádní registrovaní uživatelé a 2 návštevníků



Nemůžete zakládat nová témata v tomto fóru
Nemůžete odpovídat v tomto fóru
Nemůžete upravovat své příspěvky v tomto fóru
Nemůžete mazat své příspěvky v tomto fóru
Nemůžete přikládat soubory v tomto fóru

Přejít na:  

Time : 0.083s | 17 Queries | GZIP : Off

Filmy ke stažení zdarma | Cheaty | Pocket PC | Android | Windows Phone 7 | iGO 8 | Apple iPhone | Symbian Smartphone | ROM | Windows Mobile | BlackBerry | Palm | Java | Warez mobile forum