Kristína: Pri oltári (hudební videoklip) (2010)

Hudební dvd ripy & klipy

Moderátor: KlopuX

Odpovědět
warup
Navigátor
Navigátor
Příspěvky: 1298
Registrován: 05 zář 2014 21:01
Dal poděkování: 2 poděkování
Dostal poděkování: 1 poděkování

Kristína: Pri oltári (hudební videoklip) (2010)

Příspěvek od warup » 04 lis 2016 20:28

Kristína - Pri oltári (oficiálny videoklip)_HD

Obrázek
Obrázek
Obrázek

info

Kód: Vybrat vše

http://www.csfd.cz/film/359442-kristina-pri-oltari/prehled/
kvalita

Kód: Vybrat vše

General
Complete name               : E:\uponline\Kristína - Pri oltári (oficiálny videoklip)_HD.mp4
Format                      : MPEG-4
Format profile              : Base Media / Version 2
Codec ID                    : mp42
File size                   : 53.6 MiB
Duration                    : 3mn 43s
Overall bit rate mode       : Variable
Overall bit rate            : 2 008 Kbps
Encoded date                : UTC 2011-06-08 13:56:22
Tagged date                 : UTC 2011-06-08 13:56:22
gsst                        : 0
gstd                        : 223800
gssd                        : BADC20105HH1314951029141381
gshh                        : o-o.preferred.prg01s01.v5.lscache7.c.youtube.com

Video
ID                          : 1
Format                      : AVC
Format/Info                 : Advanced Video Codec
Format profile              : High@L3.1
Format settings, CABAC      : Yes
Format settings, ReFrames   : 1 frame
Codec ID                    : avc1
Codec ID/Info               : Advanced Video Coding
Duration                    : 3mn 43s
Bit rate                    : 1 852 Kbps
Maximum bit rate            : 9 454 Kbps
Width                       : 1 280 pixels
Height                      : 720 pixels
Display aspect ratio        : 16:9
Frame rate mode             : Constant
Frame rate                  : 25.000 fps
Color space                 : YUV
Chroma subsampling          : 4:2:0
Bit depth                   : 8 bits
Scan type                   : Progressive
Bits/(Pixel*Frame)          : 0.080
Stream size                 : 49.4 MiB (92%)
Encoded date                : UTC 1970-01-01 00:00:00
Tagged date                 : UTC 2011-06-08 13:56:23

Audio
ID                          : 2
Format                      : AAC
Format/Info                 : Advanced Audio Codec
Format profile              : LC
Codec ID                    : 40
Duration                    : 3mn 43s
Bit rate mode               : Variable
Bit rate                    : 151 Kbps
Maximum bit rate            : 192 Kbps
Channel(s)                  : 2 channels
Channel positions           : Front: L R
Sampling rate               : 44.1 KHz
Compression mode            : Lossy
Stream size                 : 4.04 MiB (8%)
Title                       : IsoMedia File Produced by Google, 5-11-2011
Encoded date                : UTC 2011-06-08 13:56:23
Tagged date                 : UTC 2011-06-08 13:56:23
download

Kód: Vybrat vše

https://bitster.cz/file/27fb25/Kristina_-_Pri_oltari_-oficialny_videoklip--HD-mp4
Obrázek

Kód: Vybrat vše

http://datoid.cz/?p=143827  
Odpovědět

Zpět na „Hudební“