Kontrafakt

Hudební dvd ripy & klipy

Moderátor: KlopuX

Odpovědět
warup
Navigátor
Navigátor
Příspěvky: 1288
Registrován: 05 zář 2014 21:01
Dal poděkování: 2 poděkování
Dostal poděkování: 1 poděkování

Kontrafakt

Příspěvek od warup » 17 zář 2014 17:23

Kontrafakt - Kým Neskapem (prod. by Aceman jeblý)

Obrázek

info

Kód: Vybrat vše

https://www.youtube.com/watch?v=97CKdLSrZ3c
popis
kvalita
General
Complete name : D:\upload\4\Kontrafakt - Kým Neskapem (prod. by Aceman jeblý).mp4
Format : MPEG-4
Format profile : Base Media / Version 2
Codec ID : mp42
File size : 36.2 MiB
Duration : 4mn 10s
Overall bit rate mode : Variable
Overall bit rate : 1 213 Kbps
Encoded date : UTC 2014-05-31 17:00:45
Tagged date : UTC 2014-05-31 17:00:45
gsst : 0
gstd : 250055
gssd : B511EE206HH1401961088637173
gshh : r3---sn-i58xa-2gbe.googlevideo.com

Video
ID : 1
Format : AVC
Format/Info : Advanced Video Codec
Format profile : High@L3.1
Format settings, CABAC : Yes
Format settings, ReFrames : 1 frame
Codec ID : avc1
Codec ID/Info : Advanced Video Coding
Duration : 4mn 10s
Bit rate : 1 019 Kbps
Maximum bit rate : 2 728 Kbps
Width : 1 280 pixels
Height : 720 pixels
Display aspect ratio : 16:9
Frame rate mode : Constant
Frame rate : 25.000 fps
Color space : YUV
Chroma subsampling : 4:2:0
Bit depth : 8 bits
Scan type : Progressive
Bits/(Pixel*Frame) : 0.044
Stream size : 30.4 MiB (84%)
Tagged date : UTC 2014-05-31 17:00:46

Audio
ID : 2
Format : AAC
Format/Info : Advanced Audio Codec
Format profile : LC
Codec ID : 40
Duration : 4mn 10s
Bit rate mode : Variable
Bit rate : 192 Kbps
Maximum bit rate : 202 Kbps
Channel(s) : 2 channels
Channel positions : Front: L R
Sampling rate : 44.1 KHz
Compression mode : Lossy
Stream size : 5.72 MiB (16%)
Title : IsoMedia File Produced by Google, 5-11-2011
Encoded date : UTC 2014-05-31 17:00:46
Tagged date : UTC 2014-05-31 17:00:46
download

Kód: Vybrat vše

http://euroshare.eu/file/nd14b74ps2/kontrafakt-kym-neskapem-prod.-by-aceman-jebly-.mp4
Obrázek

Kód: Vybrat vše

http://datoid.cz/?p=143827  
Odpovědět

Zpět na „Hudební“