Daniel Landa - Vltava Tour

Hudební dvd ripy & klipy

Moderátor: KlopuX

Odpovědět
Uživatelský avatar
Kolcek
V.I.P
V.I.P
Příspěvky: 1313
Registrován: 10 črc 2008 14:28
Bydliště: vinný sklípek :D
Dal poděkování: 24 poděkování
Dostal poděkování: 31 poděkování

Daniel Landa - Vltava Tour

Příspěvek od Kolcek » 29 dub 2010 22:04

Daniel Landa - Vltava Tour XviD
Obrázek
Info
H:\DVD rips\generic\Landa Vltava\Daniel.Landa.Vltava.Tour.xvid.avi
General
Complete name : H:\DVD rips\generic\Landa Vltava\Daniel.Landa.Vltava.Tour.xvid.avi
Format : AVI
Format/Info : Audio Video Interleave
File size : 702 MiB
Duration : 1h 35mn
Overall bit rate : 1 030 Kbps
Movie name : Daniel Landa Vltava Tour
Writing application : Lavf52.33.0
Original source form/Name : Landa Vltava
Video
Format : MPEG-4 Visual
Format profile : Simple@L3
Format settings, BVOP : No
Format settings, QPel : No
Format settings, GMC : No warppoints
Format settings, Matrix : Default (H.263)
Codec ID : XVID
Codec ID/Hint : XviD
Duration : 1h 35mn
Bit rate : 795 Kbps
Width : 720 pixels
Height : 410 pixels
Display aspect ratio : 16/9
Frame rate : 25.000 fps
Resolution : 24 bits
Colorimetry : 4:2:0
Scan type : Progressive
Bits/(Pixel*Frame) : 0.108
Stream size : 542 MiB (77%)
Writing library : XviD 1.2.1 (UTC 2008-12-04)
Audio
Format : AC-3
Format/Info : Audio Coding 3
Codec ID : 2000
Duration : 1h 35mn
Bit rate mode : Constant
Bit rate : 224 Kbps
Channel(s) : 2 channels
Channel positions : L R
Sampling rate : 48.0 KHz
Stream size : 153 MiB (22%)
Alignment : Aligned on interleaves
Interleave, duration : 32 ms (0.80 video frame)
Obrázek

Kód: Vybrat vše

http://czshare.com/files/1286789/4_w5/
http://storage.to/get/lJFa7sDq/Daniel%20Landa%20Vltava%20Tour%20XviD.zip
http://www.multiload.cz/stahnout/209467/daniel-landa-vltava-tour-xvid-zip/
-=-=-=-=-=-=-=-=-=-=-=-=-=-=-=-=-=-=-=-=-=-=-=-=-=-=-=-=-
V případě problémů pište na mail m.uploaders@gmail.com
Follow us on Twitter!

Kód: Vybrat vše

www.twitter.com/muploaders
Chcete reupload na jiný server nebo vytvořit torrent? Není problém! Napište na mail a domluvíme se!
Odpovědět

Zpět na „Hudební“