Právě je 17 srp 2017 10:34

Všechny časy jsou v UTC + 1 hodina



Daniel Landa - Vltava Tour

[ Moderátorský panel ]



Odeslat nové téma Odpovědět na téma  [ Příspěvek: 1 ] 
Autor Zpráva
 Předmět příspěvku: Daniel Landa - Vltava Tour
PříspěvekNapsal: 29 dub 2010 21:04 
V.I.P
Uživatelský avatar

Registrován: 10 črc 2008 13:28
Příspěvky: 1341
Bydliště: vinný sklípek :D
Poděkoval: 111x
Poděkováno: 292x
W4A Money: 54482
Offline
Daniel Landa - Vltava Tour XviD
Obrázek
Info
Citace:
H:\DVD rips\generic\Landa Vltava\Daniel.Landa.Vltava.Tour.xvid.avi
General
Complete name : H:\DVD rips\generic\Landa Vltava\Daniel.Landa.Vltava.Tour.xvid.avi
Format : AVI
Format/Info : Audio Video Interleave
File size : 702 MiB
Duration : 1h 35mn
Overall bit rate : 1 030 Kbps
Movie name : Daniel Landa Vltava Tour
Writing application : Lavf52.33.0
Original source form/Name : Landa Vltava
Video
Format : MPEG-4 Visual
Format profile : Simple@L3
Format settings, BVOP : No
Format settings, QPel : No
Format settings, GMC : No warppoints
Format settings, Matrix : Default (H.263)
Codec ID : XVID
Codec ID/Hint : XviD
Duration : 1h 35mn
Bit rate : 795 Kbps
Width : 720 pixels
Height : 410 pixels
Display aspect ratio : 16/9
Frame rate : 25.000 fps
Resolution : 24 bits
Colorimetry : 4:2:0
Scan type : Progressive
Bits/(Pixel*Frame) : 0.108
Stream size : 542 MiB (77%)
Writing library : XviD 1.2.1 (UTC 2008-12-04)
Audio
Format : AC-3
Format/Info : Audio Coding 3
Codec ID : 2000
Duration : 1h 35mn
Bit rate mode : Constant
Bit rate : 224 Kbps
Channel(s) : 2 channels
Channel positions : L R
Sampling rate : 48.0 KHz
Stream size : 153 MiB (22%)
Alignment : Aligned on interleaves
Interleave, duration : 32 ms (0.80 video frame)

Obrázek
Pro zobrazení linků musíte být přihlášen!
Pokud ještě nemáte zaregistrovaný účet, můžete se zaregistrovat.

-=-=-=-=-=-=-=-=-=-=-=-=-=-=-=-=-=-=-=-=-=-=-=-=-=-=-=-=-
V případě problémů pište na mail m.uploaders@gmail.com
Follow us on Twitter!
Pro zobrazení linků musíte být přihlášen!
Pokud ještě nemáte zaregistrovaný účet, můžete se zaregistrovat.

Chcete reupload na jiný server nebo vytvořit torrent? Není problém! Napište na mail a domluvíme se!

_________________
ObrázekObrázek :D
XBTiT HACKY KE STAŽENÍ ZDE!
Prodám účet na Share-Rapid s 700kč!


Nahoru
 Profil  
Zobrazit příspěvky za předchozí:  Seřadit podle  
Odpovědět na téma  [ Příspěvek: 1 ] 

Všechny časy jsou v UTC + 1 hodina


Kdo je online

Uživatelé procházející toto fórum: Žádní registrovaní uživatelé a 1 návštěvník



Nemůžete zakládat nová témata v tomto fóru
Nemůžete odpovídat v tomto fóru
Nemůžete upravovat své příspěvky v tomto fóru
Nemůžete mazat své příspěvky v tomto fóru
Nemůžete přikládat soubory v tomto fóru

Přejít na:  

Time : 0.106s | 17 Queries | GZIP : Off

Filmy ke stažení zdarma | Cheaty | Pocket PC | Android | Windows Phone 7 | iGO 8 | Apple iPhone | Symbian Smartphone | ROM | Windows Mobile | BlackBerry | Palm | Java | Warez mobile forum