Právě je 28 bře 2017 01:32

Všechny časy jsou v UTC + 1 hodina



Daniel Landa-tajemství (2007)

[ Moderátorský panel ]



Odeslat nové téma Odpovědět na téma  [ Příspěvek: 1 ] 
Autor Zpráva
 Předmět příspěvku: Daniel Landa-tajemství (2007)
PříspěvekNapsal: 21 lis 2010 16:45 
Palubní technik
Uživatelský avatar

Registrován: 03 led 2010 01:32
Příspěvky: 835
Poděkoval: 2x
Poděkováno: 102x
W4A Money: 28075
Offline
NÁZEV
Daniel Landa-tajemství (2007)
rel: Daniel Landa-tajemství (2007)-DVD.rip.by.vragy
COVER
Obrázek

CSFD
Pro zobrazení linků musíte být přihlášen!
Pokud ještě nemáte zaregistrovaný účet, můžete se zaregistrovat.


INFO
Citace:
Muzikál / Mysteriózní
Česko, 2007, 100 min

Režie: Mirjam Landová
Hrají: Lucie Vondráčková, Jiří Langmajer, Daniel Landa, Jana Vaculíková, Richard Tesařík, Martin Sobotka, Ivan Vodochodský, Michaela Kuklová

Doktorka Eliška, která v dětství slýchávala legendu o Vlčím vrchu má problémy s muži a opět se s jedním rozejde. Rozhodne se, že pojede stopem a třeba nějakého chlapa najde a seznámí se s někým. Její nejlepší kamarádka Kamila jí jednou dovede na vrch, kde se odehrála legenda a Eliška je fascinovaná, že stojí na místě, o kterém snila jako malá holčička. Najednou Kamila zmizí… Eliška se ocitá v zvláštním světe plný záhad, temnoty a děsivých míst a zvuků. Vydá se hledat Kamilu, ale stále ji nemůže najít. Dějem se proplétají historické scény z legendy, které si Eliška představuje a setkává se se zvláštními postavami, které jí nechtějí prozradit Tajemství, o kterém všichni mluví. Eliška je nucena hrát s nimi hru, ale ani neví, o čem hra je a jak se hraje. Pořád se snaží najít smysl Tajemství a konce legendy. Začíná být zoufalá, když se kolem ní objevují samé záhadné postavy, které ji jen děsí a vyprávějí cosi o šifře, kterou musí Eliška vyluštit, aby přišla na kloub onu Tajemství. Vlčí vrch je proslulý lidmi trpícími Lykantropií, což je jedna z podob schizofrenie, kdy se člověk stává vlkem a jako v dějinách, vraždí lidi. Eliška je obviněna policisty z vraždy svého přítele z Hospůdky, který ji prozradil, že jisté Tajemství existuje a kdyby mohl, řekl by jí, o co jde…ale nemůže.. Eliška stále vidí Jana a jeho ženu Anežku- hlavní postavy legendy o Vlčím vrchu. Jako malá si představovala, že je Anežka, kterou miluje Jan…statečný čaroděj z pohanských kmenů…o čemž ale Anežka vůbec neví… Stále se Eliška ocitá ve svých představách a naději, že se nakonec Tajemství dozví a že zjistí, co znamená její šifra.


Citace:
1. Malá slečna (muzikál Tajemství)
2. Hledá se muž (muzikál Tajemství)
3. Život na vlásku (muzikál Tajemství)
4. K sobě patříme (muzikál Tajemství)
5. Pozor milé dámy (muzikál Tajemství)
6. Vlčí vrch (muzikál Tajemství)
7. Anežka a Jan (muzikál Tajemství)
8. Krčma smrti (muzikál Tajemství)
9. Kouzlo (muzikál Tajemství)
10. Magická noc (muzikál Tajemství)
11. Mrtví už nic nepoví (muzikál Tajemství)
12. Hraj s námi hru (muzikál Tajemství)
13. Tajemný soused (muzikál Tajemství)
14. Věřím tedy padám (muzikál Tajemství)
15. Krásná chvíle (muzikál Tajemství)
16. Proč odcházíš/Prokletý rod (muzikál Tajemství)
17. Lykantropie (muzikál Tajemství)
18. Staré zdi (muzikál Tajemství)
19. Volám (muzikál Tajemství)
20. Tajemství (muzikál Tajemství)
21. Poslední karta (muzikál Tajemství)
22. Čaruj (muzikál Tajemství)


QUALITY
Citace:
Format : AVI
Format/Info : Audio Video Interleave
File size : 1.45 GiB
Duration : 1h 40mn
Overall bit rate : 2 057 Kbps
Movie name : landa.tajemstvi.muzikal.pavuky.DVD
Writing application : Lavf52.33.0

Video
Format : MPEG-4 Visual
Format profile : Simple@L3
Format settings, BVOP : No
Format settings, QPel : No
Format settings, GMC : No warppoints
Format settings, Matrix : Default
Codec ID : DX50
Codec ID/Hint : DivX 5
Duration : 1h 40mn
Bit rate : 1 598 Kbps
Width : 704 pixels
Height : 454 pixels
Display aspect ratio : 1.551
Frame rate : 25.000 fps
Resolution : 24 bits
Colorimetry : 4:2:0
Scan type : Progressive
Bits/(Pixel*Frame) : 0.200
Stream size : 1.12 GiB (78%)
Writing library : XviD 1.2.1 (UTC 2008-12-04)

Audio
Format : AC-3
Format/Info : Audio Coding 3
Codec ID : 2000
Duration : 1h 40mn
Bit rate mode : Constant
Bit rate : 448 Kbps
Channel(s) : 6 channels
Channel positions : Front: L C R, Surround: L R, LFE
Sampling rate : 48.0 KHz
Stream size : 323 MiB (22%)
Alignment : Aligned on interleaves
Interleave, duration : 32 ms (0.80 video frame)


MULTISHARE
Pro zobrazení linků musíte být přihlášen!
Pokud ještě nemáte zaregistrovaný účet, můžete se zaregistrovat.


SHARERAPID
Pro zobrazení linků musíte být přihlášen!
Pokud ještě nemáte zaregistrovaný účet, můžete se zaregistrovat.


ULOŽ.TO
Pro zobrazení linků musíte být přihlášen!
Pokud ještě nemáte zaregistrovaný účet, můžete se zaregistrovat.


QUICKSHARE
Pro zobrazení linků musíte být přihlášen!
Pokud ještě nemáte zaregistrovaný účet, můžete se zaregistrovat.


CZ.SHARE
Pro zobrazení linků musíte být přihlášen!
Pokud ještě nemáte zaregistrovaný účet, můžete se zaregistrovat.


RAPIDSHARE
Pro zobrazení linků musíte být přihlášen!
Pokud ještě nemáte zaregistrovaný účet, můžete se zaregistrovat.


MŮJ.SOUBOR
Pro zobrazení linků musíte být přihlášen!
Pokud ještě nemáte zaregistrovaný účet, můžete se zaregistrovat.


MEGARAPID/color]
Pro zobrazení linků musíte být přihlášen!
Pokud ještě nemáte zaregistrovaný účet, můžete se zaregistrovat.



Citace:
Všechny linky jsou bez hesla !!!
Pokud chcete provést reup, tak nespamujte, ale kontaktujte mne SS/PM !!!
Linky jsou kombinované, když mají stejnou velikost !!!
V případě problémů ,mě kontaktujte SS / PM !!!
Všechny mé uploady jsou baleny RARem !!!
Všechny mé uploady doporučuji stahovat JDownloader !!!
Přidán záznam na opravu dat 5 % !!!
[color=#FF0000]Tento produkt pro Vás nahrál PABLOS 33


Nahoru
 Profil  
Zobrazit příspěvky za předchozí:  Seřadit podle  
Odpovědět na téma  [ Příspěvek: 1 ] 

Všechny časy jsou v UTC + 1 hodina


Kdo je online

Uživatelé procházející toto fórum: Žádní registrovaní uživatelé a 1 návštěvník



Nemůžete zakládat nová témata v tomto fóru
Nemůžete odpovídat v tomto fóru
Nemůžete upravovat své příspěvky v tomto fóru
Nemůžete mazat své příspěvky v tomto fóru
Nemůžete přikládat soubory v tomto fóru

Přejít na:  

Time : 0.153s | 19 Queries | GZIP : Off

Filmy ke stažení zdarma | Cheaty | Pocket PC | Android | Windows Phone 7 | iGO 8 | Apple iPhone | Symbian Smartphone | ROM | Windows Mobile | BlackBerry | Palm | Java | Warez mobile forum