ABBA: Koncert / ABBA in Concert (1980)

Hudební dvd ripy & klipy

Moderátor: KlopuX

Odpovědět
warup
Navigátor
Navigátor
Příspěvky: 1303
Registrován: 05 zář 2014 21:01
Dal poděkování: 2 poděkování
Dostal poděkování: 1 poděkování

ABBA: Koncert / ABBA in Concert (1980)

Příspěvek od warup » 02 črc 2017 14:11

ABBA - Don Kirshner's Rock Concert & More... (1972-1978)
Obrázek

info

Kód: Vybrat vše

https://www.csfd.cz/film/269956-abba-koncert/prehled/
Koncertní DVD s podtitulem ABBA Live - Jací opravdu byli začíná jako poněkud neuspořádaný dokument z turné po USA a Kanadě. Části písniček na koncertech střídají prostřihy na mimokoncertní činost skupiny - ABBA na snídani, ABBA v taxíku, Björn na jogingu a podobně. Jakmile se však skupina přesune do Evropy, jde o regulérní záznam z koncertu ve Wembley. Na DVD zazní většina písní hraných na koncertní šňůře v roce 1979, jak starších hitů (Waterloo, Take A Chance On Me, Knowing Me Knowing You), tak písniček z alba "Voulez-Vous" (titulní skladba, Does Your Mother Know) a z alba "The Movie" (Eagles). Velmi zajímavý je i bonusový materiál, zvláště pak koncertní verze písničky "The Way Old Friends Do", zpívané z části bez doprovodu kapely.(jprmusic)
kvalita
General
Complete name : D:\up\1\ABBA - Don Kirshner's Rock Concert & More... (1972-1978).mp4
Format : MPEG-4
Format profile : Base Media / Version 2
Codec ID : mp42 (isom/mp42)
File size : 235 MiB
Duration : 1 h 1 min
Overall bit rate mode : Variable
Overall bit rate : 537 kb/s
Encoded date : UTC 2015-11-18 07:10:39
Tagged date : UTC 2015-11-18 07:10:39
gsst : 0
gstd : 3674486
gssd : B0AFCF3B3
gshh : r9---sn-2gb7ln7d.googlevideo.com

Video
ID : 1
Format : AVC
Format/Info : Advanced Video Codec
Format profile : Baseline@L2.1
Format settings, CABAC : No
Format settings, ReFrames : 1 frame
Codec ID : avc1
Codec ID/Info : Advanced Video Coding
Duration : 1 h 1 min
Bit rate : 438 kb/s
Maximum bit rate : 1 158 kb/s
Width : 480 pixels
Height : 360 pixels
Display aspect ratio : 4:3
Frame rate mode : Constant
Frame rate : 25.000 FPS
Color space : YUV
Chroma subsampling : 4:2:0
Bit depth : 8 bits
Scan type : Progressive
Bits/(Pixel*Frame) : 0.101
Stream size : 192 MiB (82%)
Tagged date : UTC 2015-11-18 07:11:20

Audio
ID : 2
Format : AAC
Format/Info : Advanced Audio Codec
Format profile : LC
Codec ID : 40
Duration : 1 h 1 min
Bit rate mode : Variable
Bit rate : 96.0 kb/s
Maximum bit rate : 102 kb/s
Channel(s) : 2 channels
Channel positions : Front: L R
Sampling rate : 44.1 kHz
Frame rate : 43.066 FPS (1024 spf)
Compression mode : Lossy
Stream size : 42.1 MiB (18%)
Title : IsoMedia File Produced by Google, 5-11-2011
Encoded date : UTC 2015-11-18 07:10:52
Tagged date : UTC 2015-11-18 07:11:20
download

Kód: Vybrat vše

https://uloz.to/!vijUfbQTxM5k/abba-don-kirshner-s-rock-concert-more-1972-1978-mp4
Obrázek

Kód: Vybrat vše

http://datoid.cz/?p=143827  
Odpovědět

Zpět na „Hudební“