Maniak - Pulgasari

Originální hudební dvd, včetně biografií kapel a muzikálových filmů

Moderátor: KlopuX

Odpovědět
warup
Navigátor
Navigátor
Příspěvky: 1290
Registrován: 05 zář 2014 21:01
Dal poděkování: 2 poděkování
Dostal poděkování: 1 poděkování

Maniak - Pulgasari

Příspěvek od warup » 26 črc 2017 15:54

Maniak - Pulgasari ( Fuckficial Video)

Obrázek

kvalita
General
Complete name : D:\up\1\Maniak - Pulgasari ( Fuckficial Video)\VIDEO_TS\VTS_01_1.VOB
Format : MPEG-PS
File size : 44.2 MiB
Duration : 3 min 34 s
Overall bit rate mode : Variable
Overall bit rate : 1 731 kb/s

Video
ID : 224 (0xE0)
Format : MPEG Video
Format version : Version 2
Format profile : Main@Main
Format settings, BVOP : Yes
Format settings, Matrix : Default
Format settings, GOP : M=3, N=15
Duration : 3 min 34 s
Bit rate mode : Variable
Bit rate : 1 440 kb/s
Maximum bit rate : 9 000 kb/s
Width : 720 pixels
Height : 576 pixels
Display aspect ratio : 16:9
Frame rate : 25.000 FPS
Standard : PAL
Color space : YUV
Chroma subsampling : 4:2:0
Bit depth : 8 bits
Scan type : Progressive
Compression mode : Lossy
Bits/(Pixel*Frame) : 0.139
Time code of first frame : 00:00:00:00
Time code source : Group of pictures header
GOP, Open/Closed : Open
Stream size : 36.8 MiB (83%)

Audio
ID : 189 (0xBD)-128 (0x80)
Format : AC-3
Format/Info : Audio Coding 3
Mode extension : CM (complete main)
Format settings, Endianness : Big
Muxing mode : DVD-Video
Duration : 3 min 34 s
Bit rate mode : Constant
Bit rate : 256 kb/s
Channel(s) : 2 channels
Channel positions : Front: L R
Sampling rate : 48.0 kHz
Frame rate : 31.250 FPS (1536 spf)
Compression mode : Lossy
Stream size : 6.54 MiB (15%)

Menu
download

Kód: Vybrat vše

https://webshare.cz/#/file/5I57ba45H1/maniak-pulgasari-fuckficial-video-rar
Obrázek

Kód: Vybrat vše

http://datoid.cz/?p=143827  
Odpovědět

Zpět na „Hudební“