Právě je 20 lis 2017 13:01

Všechny časy jsou v UTC + 1 hodina



Akon - vydeoklipy

[ Moderátorský panel ]



Odeslat nové téma Odpovědět na téma  [ Příspěvků: 2 ] 
Autor Zpráva
 Předmět příspěvku: Akon - vydeoklipy
PříspěvekNapsal: 21 bře 2015 12:15 
Navigátor

Registrován: 05 zář 2014 20:01
Příspěvky: 1171
Poděkoval: 4x
Poděkováno: 3x
W4A Money: 41130
Online
Akon - Hurt Somebody (Explicit) ft. French Montana

Obrázek

info

Pro zobrazení linků musíte být přihlášen!
Pokud ještě nemáte zaregistrovaný účet, můžete se zaregistrovat.


kvalita

Citace:
General
Complete name : E:\up\Akon - Hurt Somebody (Explicit) ft. French Montana.flv
Format : Flash Video
File size : 11.9 MiB
Duration : 4mn 28s
Overall bit rate : 372 Kbps
httphostheader : r4---sn-upfn-25gl.c.youtube.com

Video
Format : Sorenson Spark
Codec ID : 2
Duration : 4mn 28s
Bit rate : 300 Kbps
Width : 426 pixels
Height : 240 pixels
Display aspect ratio : 16:9
Frame rate mode : Constant
Frame rate : 23.976 fps
Bit depth : 8 bits
Bits/(Pixel*Frame) : 0.122
Stream size : 9.62 MiB (81%)

Audio
Format : MPEG Audio
Format version : Version 2
Format profile : Layer 3
Mode : Joint stereo
Mode extension : MS Stereo
Codec ID : 2
Codec ID/Hint : MP3
Duration : 4mn 28s
Bit rate mode : Constant
Bit rate : 64.0 Kbps
Channel(s) : 2 channels
Sampling rate : 22.05 KHz
Compression mode : Lossy
Stream size : 2.05 MiB (17%)
Writing library : LAME3.98.2


download

Pro zobrazení linků musíte být přihlášen!
Pokud ještě nemáte zaregistrovaný účet, můžete se zaregistrovat.


muj upload

_________________
Obrázek

Pro zobrazení linků musíte být přihlášen!
Pokud ještě nemáte zaregistrovaný účet, můžete se zaregistrovat.


Nahoru
 Profil  
 Předmět příspěvku: Akon - vydeoklipy
PříspěvekNapsal: 21 bře 2015 12:29 
Navigátor

Registrován: 05 zář 2014 20:01
Příspěvky: 1171
Poděkoval: 4x
Poděkováno: 3x
W4A Money: 41130
Online
Akon - Oh Africa

Obrázek

info

Pro zobrazení linků musíte být přihlášen!
Pokud ještě nemáte zaregistrovaný účet, můžete se zaregistrovat.


Citace:
"Oh Africa" is a song performed by the artist Akon featuring Keri Hilson. The song is a charity single and was released to raise funds for Akon's charity 'Konfidence' [1] to aid underprivileged children in Africa. The song was released as a digital download on 52nd Grammy Awards night, January 31, 2010, along with the video. The Soweto Gospel Choir and young singers from many countries are also featured on the single.[2] The footballers Thierry Henry, Didier Drogba, Kaká, Fernando Torres, Lionel Messi, Frank Lampard, Michael Ballack and Andrei Arshavin make cameo appearances in the music video.


kvalita

Citace:
General
Complete name : E:\up\Akon - Oh Africa.avi
Format : AVI
Format/Info : Audio Video Interleave
File size : 19.1 MiB
Duration : 3mn 25s
Overall bit rate : 782 Kbps
Writing application : Lavf52.23.1

Video
ID : 0
Format : xvid
Codec ID : xvid
Duration : 3mn 25s
Bit rate : 646 Kbps
Width : 426 pixels
Height : 240 pixels
Display aspect ratio : 16:9
Frame rate : 24.000 fps
Bits/(Pixel*Frame) : 0.263
Stream size : 15.8 MiB (83%)

Audio
ID : 1
Format : MPEG Audio
Format version : Version 2
Format profile : Layer 2
Codec ID : 50
Duration : 3mn 25s
Bit rate mode : Constant
Bit rate : 128 Kbps
Channel(s) : 2 channels
Sampling rate : 22.05 KHz
Compression mode : Lossy
Stream size : 3.13 MiB (16%)
Alignment : Aligned on interleaves
Interleave, duration : 52 ms (1.25 video frame)



download

Pro zobrazení linků musíte být přihlášen!
Pokud ještě nemáte zaregistrovaný účet, můžete se zaregistrovat.


muj upload

_________________
Obrázek

Pro zobrazení linků musíte být přihlášen!
Pokud ještě nemáte zaregistrovaný účet, můžete se zaregistrovat.


Nahoru
 Profil  
Zobrazit příspěvky za předchozí:  Seřadit podle  
Odpovědět na téma  [ Příspěvků: 2 ] 

Všechny časy jsou v UTC + 1 hodina


Kdo je online

Uživatelé procházející toto fórum: Žádní registrovaní uživatelé a 1 návštěvník



Nemůžete zakládat nová témata v tomto fóru
Nemůžete odpovídat v tomto fóru
Nemůžete upravovat své příspěvky v tomto fóru
Nemůžete mazat své příspěvky v tomto fóru
Nemůžete přikládat soubory v tomto fóru

Přejít na:  

Time : 0.109s | 18 Queries | GZIP : Off

Filmy ke stažení zdarma | Cheaty | Pocket PC | Android | Windows Phone 7 | iGO 8 | Apple iPhone | Symbian Smartphone | ROM | Windows Mobile | BlackBerry | Palm | Java | Warez mobile forum