Kožené slunce (2002)

Originální dvd s dabingem, které se nehodí do jiných kategorií

Moderátor: KlopuX

Odpovědět
Uživatelský avatar
SpitAngeR
Pozorovatel
Pozorovatel
Příspěvky: 69
Registrován: 28 říj 2017 09:15

Kožené slunce (2002)

Příspěvek od SpitAngeR » 07 led 2018 23:15

Kožené slunce (2002)
Obrázek

Kód: Vybrat vše

https://www.csfd.cz/film/70617-kozene-slunce/
https://www.fdb.cz/film/kozene-slunce/34038
http://www.imdb.com/title/tt0333744/
Kozene.slunce.2002.Full.DVD.PAL.CZ-BoLeRO

Kód: Vybrat vše

General
Complete name               : D:\RLS\Kozene.slunce.2002.Full.DVD.PAL.CZ-BoLeRO\VIDEO_TS\VTS_02_1.VOB
Format                      : MPEG-PS
File size                   : 1 024 MiB
Duration                    : 22 min 24 s
Overall bit rate mode       : Variable
Overall bit rate            : 6 387 kb/s

Video
ID                          : 224 (0xE0)
Format                      : MPEG Video
Format version              : Version 2
Format profile              : Main@Main
Format settings             : BVOP
Format settings, BVOP       : Yes
Format settings, Matrix     : Default
Format settings, GOP        : M=2, N=6
Format settings, picture st : Frame
Duration                    : 22 min 24 s
Bit rate mode               : Variable
Bit rate                    : 6 035 kb/s
Maximum bit rate            : 9 800 kb/s
Width                       : 720 pixels
Height                      : 576 pixels
Display aspect ratio        : 4:3
Frame rate                  : 25.000 FPS
Standard                    : PAL
Color space                 : YUV
Chroma subsampling          : 4:2:0
Bit depth                   : 8 bits
Scan type                   : Interlaced
Scan order                  : Top Field First
Compression mode            : Lossy
Bits/(Pixel*Frame)          : 0.582
Time code of first frame    : 00:00:00:00
Time code source            : Group of pictures header
GOP, Open/Closed            : Closed
Stream size                 : 968 MiB (95%)

Audio
ID                          : 189 (0xBD)-128 (0x80)
Format                      : AC-3
Format/Info                 : Audio Coding 3
Format settings, Endianness : Big
Muxing mode                 : DVD-Video
Duration                    : 22 min 24 s
Bit rate mode               : Constant
Bit rate                    : 224 kb/s
Channel(s)                  : 2 channels
Channel positions           : Front: L R
Sampling rate               : 48.0 kHz
Frame rate                  : 31.250 FPS (1536 SPF)
Bit depth                   : 16 bits
Compression mode            : Lossy
Stream size                 : 35.9 MiB (4%)
Service kind                : Complete Main

Text
ID                          : 189 (0xBD)-32 (0x20)
Format                      : RLE
Format/Info                 : Run-length encoding
Muxing mode                 : DVD-Video
Duration                    : 22 min 23 s
Delay relative to video     : 680 ms

Menu

Kód: Vybrat vše

DVD full - /ISO/ 3864Mb
Menu a bonusy: Ano / Ne (neobsahuje)
Jazyk: Český DD2.0
Titulky: české (pro neslyšící)
Obrázek

Kód: Vybrat vše

http://fastshare.cz/8476389/kozene.slunce.2002.full.dvd.pal.cz-bolero.part1.rar
http://fastshare.cz/8476436/kozene.slunce.2002.full.dvd.pal.cz-bolero.part2.rar
http://fastshare.cz/8476476/kozene.slunce.2002.full.dvd.pal.cz-bolero.part3.rar
Přidán záznam pro opravu dat 10%.
Obrázek
Jeden link:

Kód: Vybrat vše

https://uloz.to/!ZhH13Zm58VPu/kozene-slunce-2002-full-dvd-pal-cz-bolero-iso
Odpovědět

Zpět na „Filmy“