Právě je 17 říj 2017 08:56

Všechny časy jsou v UTC + 1 hodina



Herkules v New Yorku / Hercules in New York (1969)

[ Moderátorský panel ]



Odeslat nové téma Odpovědět na téma  [ Příspěvek: 1 ] 
Autor Zpráva
 Předmět příspěvku: Herkules v New Yorku / Hercules in New York (1969)
PříspěvekNapsal: 19 čer 2017 10:55 
Navigátor

Registrován: 05 zář 2014 20:01
Příspěvky: 1062
Poděkoval: 4x
Poděkováno: 3x
W4A Money: 37170
Offline
Obrázek

info

Pro zobrazení linků musíte být přihlášen!
Pokud ještě nemáte zaregistrovaný účet, můžete se zaregistrovat.


Citace:
Diův syn Herkules, přebývající na hoře Olymp se tu začíná nudit. Rozhodne se proto navštívit svět lidí a vypraví se do New Yorku 20. století. Díky svému zjevu, síle a vystupování se stává terčem pozornosti a prožívá různá dobrodružství. Rozhněvá tím některé bohy a ti ho zbaví jeho síly a nesmrtelnosti. Herkules se ale dokáže obejít i bez těchto schopností... Americká dobrodružná fantasy komedie z roku 1969 se zapsala do filmových dějin především jako herecký debut v té době širokou veřejností nepříliš známého rakouského kulturisty jménem Arnold Schwarzenegger.(Vojcl)


kvalita

Citace:
General
Complete name : D:\up\1\VIDEO_TS\VTS_02_1.VOB
Format : MPEG-PS
File size : 1 024 MiB
Duration : 21 min 45 s
Overall bit rate : 6 580 kb/s

Video
ID : 224 (0xE0)
Format : MPEG Video
Format version : Version 2
Format profile : Main@Main
Format settings, BVOP : Yes
Format settings, Matrix : Custom
Format settings, GOP : M=3, N=12
Format settings, picture st : Frame
Duration : 21 min 45 s
Bit rate : 6 000 kb/s
Width : 720 pixels
Height : 576 pixels
Display aspect ratio : 4:3
Frame rate : 25.000 FPS
Standard : PAL
Color space : YUV
Chroma subsampling : 4:2:0
Bit depth : 8 bits
Scan type : Interlaced
Scan order : Top Field First
Compression mode : Lossy
Bits/(Pixel*Frame) : 0.579
Time code of first frame : 00:00:00:00
Time code source : Group of pictures header
GOP, Open/Closed : Closed
Stream size : 934 MiB (91%)

Audio #1
ID : 189 (0xBD)-128 (0x80)
Format : AC-3
Format/Info : Audio Coding 3
Mode extension : CM (complete main)
Format settings, Endianness : Big
Muxing mode : DVD-Video
Duration : 21 min 44 s
Bit rate mode : Constant
Bit rate : 224 kb/s
Channel(s) : 2 channels
Channel positions : Front: L R
Sampling rate : 48.0 kHz
Frame rate : 31.250 FPS (1536 spf)
Compression mode : Lossy
Stream size : 34.8 MiB (3%)

Audio #2
ID : 189 (0xBD)-129 (0x81)
Format : AC-3
Format/Info : Audio Coding 3
Mode extension : CM (complete main)
Format settings, Endianness : Big
Muxing mode : DVD-Video
Duration : 21 min 44 s
Bit rate mode : Constant
Bit rate : 224 kb/s
Channel(s) : 2 channels
Channel positions : Front: L R
Sampling rate : 48.0 kHz
Frame rate : 31.250 FPS (1536 spf)
Compression mode : Lossy
Stream size : 34.8 MiB (3%)

Menu


download
Pro zobrazení linků musíte být přihlášen!
Pokud ještě nemáte zaregistrovaný účet, můžete se zaregistrovat.

_________________
Obrázek

Pro zobrazení linků musíte být přihlášen!
Pokud ještě nemáte zaregistrovaný účet, můžete se zaregistrovat.


Nahoru
 Profil  
Zobrazit příspěvky za předchozí:  Seřadit podle  
Odpovědět na téma  [ Příspěvek: 1 ] 

Všechny časy jsou v UTC + 1 hodina


Kdo je online

Uživatelé procházející toto fórum: Žádní registrovaní uživatelé a 1 návštěvník



Nemůžete zakládat nová témata v tomto fóru
Nemůžete odpovídat v tomto fóru
Nemůžete upravovat své příspěvky v tomto fóru
Nemůžete mazat své příspěvky v tomto fóru
Nemůžete přikládat soubory v tomto fóru

Přejít na:  

Time : 1.777s | 19 Queries | GZIP : Off

Filmy ke stažení zdarma | Cheaty | Pocket PC | Android | Windows Phone 7 | iGO 8 | Apple iPhone | Symbian Smartphone | ROM | Windows Mobile | BlackBerry | Palm | Java | Warez mobile forum