12 kol / 12 rounds (2009)

Moderátor: KlopuX

Odpovědět
warup
Navigátor
Navigátor
Příspěvky: 1346
Registrován: 05 zář 2014 21:01
Dal poděkování: 2 poděkování
Dostal poděkování: 1 poděkování

12 kol / 12 rounds (2009)

Příspěvek od warup » 23 úno 2018 00:52

Obrázek

info

Kód: Vybrat vše

https://www.csfd.cz/film/239080-12-kol/prehled/
Detektív Danny Fischer sa pri policajnej akcii v New Orleanse chystá zatknúť nebezpečného zločinca Milesa Jacksona aj s jeho mnohomiliónovým lupom. Jackson sa aj so svojou priateľkou dá na útek, skončí v putách, ale jeho priateľka nešťastnou náhodou príde o život.
Miles z jej smrti viní Dannyho a sľúbi mu odplatu. Presne po roku si detektív vypočuje znepokojujúci telefonát od Milesa, v ktorom mu zločinec stručne povedané povie – oko za oko, zub za zub.
Miles ušiel z väzenia a prichystal pre Dannyho nebezpečnú hru na dvanásť kôl s takmer nerozlúštiteľnými úlohami a hádankami, ktoré však musí všetky splniť. V opačnom prípade príde jeho priateľka Molly, ktorú Miles uniesol, o život.
Danny, ktorému Miles už zničil dom a auto, sa púšťa do zdolávania týchto čudesných dvanástich kôl bez istého výsledku...(oficiální text distributora)
kvalita
General
Complete name : D:\12 kol =2009-DVD-CZ.avi
Format : AVI
Format/Info : Audio Video Interleave
Format profile : OpenDML
File size : 1.03 GiB
Duration : 1h 49mn
Overall bit rate : 1 344 Kbps
Writing application : Lavf57.65.100

Video
ID : 0
Format : xvid
Codec ID : xvid
Duration : 1h 49mn
Bit rate : 1 200 Kbps
Width : 712 pixels
Height : 296 pixels
Display aspect ratio : 2.40:1
Frame rate : 23.976 fps
Bits/(Pixel*Frame) : 0.238
Stream size : 939 MiB (89%)

Audio
ID : 1
Format : MPEG Audio
Format version : Version 1
Format profile : Layer 3
Mode : Joint stereo
Mode extension : MS Stereo
Codec ID : 55
Codec ID/Hint : MP3
Duration : 1h 49mn
Bit rate mode : Constant
Bit rate : 128 Kbps
Channel(s) : 2 channels
Sampling rate : 44.1 KHz
Compression mode : Lossy
Stream size : 100 MiB (10%)
Alignment : Aligned on interleaves
Interleave, duration : 26 ms (0.63 video frame)
Interleave, preload duratio : 78 ms
Writing library : LAME3.99.5
download

Kód: Vybrat vše

https://datoid.cz/TISzs4/12-kol-12-rounds-2009
12 kol =2009-DVD-CZ

Kód: Vybrat vše

https://uloz.to/!G5hCMhLVdinc/12-kol-2009-dvd-cz-avi
Obrázek

Kód: Vybrat vše

http://datoid.cz/?p=143827  
Odpovědět

Zpět na „Filmy“