Právě je 19 čer 2018 20:58

Všechny časy jsou v UTC + 1 hodina



O vodníku Česílkovi (1966)

[ Moderátorský panel ]



Odeslat nové téma Odpovědět na téma  [ Příspěvek: 1 ] 
Autor Zpráva
 Předmět příspěvku: O vodníku Česílkovi (1966)
PříspěvekNapsal: 23 úno 2018 18:08 
Navigátor

Registrován: 05 zář 2014 20:01
Příspěvky: 1280
Poděkoval: 4x
Poděkováno: 5x
W4A Money: 50610
Offline
Obrázek

info

Pro zobrazení linků musíte být přihlášen!
Pokud ještě nemáte zaregistrovaný účet, můžete se zaregistrovat.


Citace:
Kreslený seriál o vodníku Česílkovi, který bydlí v malém rybníčku v lukách pod Jičínem.

Názvy jednotlivých epizod :
1. Jak hrál vodník Česílko s knížetem karty
2. Jak vodník Česílko zachránil rusalku
3. Jak mu krejčí Vodička vyspravil hopsafrak
4. Jak vodníku Česílkovi praskla struna
5. Jak Česílko kupoval čápa
6. Jak Česílko vyzrál na Halamu
7. Jak si vzal Česílko Andulku
8. Jak Česílko sháněl bruselské krajky
9. Jak Česílko ulovil basu
10. Jak Česílkovi zamrzl rybník
11. Jak se Česílko málem stal knížepánem
12. Jak Česílko rozehřál zmrzlou kněžnu
13. Jak Česílko vypustil loupežníka
(Karlos80)


kvalita

Citace:
General
Complete name : D:\(o vodniku cesilkovi) 01 jak hral cesilko s knizetem karty (animovany) -68'-DVBT_CZ-(romin).avi
Format : AVI
Format/Info : Audio Video Interleave
File size : 150 MiB
Duration : 7mn 47s
Overall bit rate : 2 691 Kbps
Writing application : VirtualDubMod 1.5.4.1 (build 2178/release)
Writing library : VirtualDubMod build 2178/release

Video
ID : 0
Format : MPEG-4 Visual
Format profile : Advanced Simple@L5
Format settings, BVOP : 1
Format settings, QPel : No
Format settings, GMC : No warppoints
Format settings, Matrix : Custom
Codec ID : XVID
Codec ID/Hint : XviD
Duration : 7mn 47s
Bit rate : 2 556 Kbps
Width : 720 pixels
Height : 544 pixels
Display aspect ratio : 4:3
Frame rate : 25.000 fps
Color space : YUV
Chroma subsampling : 4:2:0
Bit depth : 8 bits
Scan type : Progressive
Compression mode : Lossy
Bits/(Pixel*Frame) : 0.261
Stream size : 142 MiB (95%)
Writing library : XviD 65

Audio
ID : 1
Format : MPEG Audio
Format version : Version 1
Format profile : Layer 3
Mode : Joint stereo
Mode extension : MS Stereo
Codec ID : 55
Codec ID/Hint : MP3
Duration : 7mn 46s
Bit rate mode : Constant
Bit rate : 128 Kbps
Channel(s) : 2 channels
Sampling rate : 48.0 KHz
Compression mode : Lossy
Stream size : 7.13 MiB (5%)
Alignment : Aligned on interleaves
Interleave, duration : 80 ms (2.00 video frames)
Interleave, preload duratio : 504 ms
Writing library : LAME3.98r
Encoding settings : -m j -V 4 -q 2 -lowpass 17 -b 128


download

Pro zobrazení linků musíte být přihlášen!
Pokud ještě nemáte zaregistrovaný účet, můžete se zaregistrovat.


(o vodniku cesilkovi) 03 jak mu krejcik vodicka vyspravil hopsafrak (animovany) -68'-DVBT_CZ-(romin)

Pro zobrazení linků musíte být přihlášen!
Pokud ještě nemáte zaregistrovaný účet, můžete se zaregistrovat.


Naposledy upravil sedum dne 13 bře 2018 17:20, celkově upraveno 1
Příspěvek byl upraven

_________________
Obrázek

Pro zobrazení linků musíte být přihlášen!
Pokud ještě nemáte zaregistrovaný účet, můžete se zaregistrovat.


Nahoru
 Profil  
Zobrazit příspěvky za předchozí:  Seřadit podle  
Odpovědět na téma  [ Příspěvek: 1 ] 

Všechny časy jsou v UTC + 1 hodina


Kdo je online

Uživatelé procházející toto fórum: Žádní registrovaní uživatelé a 1 návštěvník



Nemůžete zakládat nová témata v tomto fóru
Nemůžete odpovídat v tomto fóru
Nemůžete upravovat své příspěvky v tomto fóru
Nemůžete mazat své příspěvky v tomto fóru
Nemůžete přikládat soubory v tomto fóru

Přejít na:  

Time : 0.115s | 20 Queries | GZIP : Off

Filmy ke stažení zdarma | Cheaty | Pocket PC | Android | Windows Phone 7 | iGO 8 | Apple iPhone | Symbian Smartphone | ROM | Windows Mobile | BlackBerry | Palm | Java | Warez mobile forum