O vodníku Česílkovi (1966)

Animované pohádky - filmy, které již nepatří do novinek

Moderátor: KlopuX

Odpovědět
warup
Navigátor
Navigátor
Příspěvky: 1303
Registrován: 05 zář 2014 21:01
Dal poděkování: 2 poděkování
Dostal poděkování: 1 poděkování

O vodníku Česílkovi (1966)

Příspěvek od warup » 23 úno 2018 18:08

Obrázek

info

Kód: Vybrat vše

https://www.csfd.cz/film/230269-o-vodniku-cesilkovi/prehled/
Kreslený seriál o vodníku Česílkovi, který bydlí v malém rybníčku v lukách pod Jičínem.

Názvy jednotlivých epizod :
1. Jak hrál vodník Česílko s knížetem karty
2. Jak vodník Česílko zachránil rusalku
3. Jak mu krejčí Vodička vyspravil hopsafrak
4. Jak vodníku Česílkovi praskla struna
5. Jak Česílko kupoval čápa
6. Jak Česílko vyzrál na Halamu
7. Jak si vzal Česílko Andulku
8. Jak Česílko sháněl bruselské krajky
9. Jak Česílko ulovil basu
10. Jak Česílkovi zamrzl rybník
11. Jak se Česílko málem stal knížepánem
12. Jak Česílko rozehřál zmrzlou kněžnu
13. Jak Česílko vypustil loupežníka
(Karlos80)
kvalita
General
Complete name : D:\(o vodniku cesilkovi) 01 jak hral cesilko s knizetem karty (animovany) -68'-DVBT_CZ-(romin).avi
Format : AVI
Format/Info : Audio Video Interleave
File size : 150 MiB
Duration : 7mn 47s
Overall bit rate : 2 691 Kbps
Writing application : VirtualDubMod 1.5.4.1 (build 2178/release)
Writing library : VirtualDubMod build 2178/release

Video
ID : 0
Format : MPEG-4 Visual
Format profile : Advanced Simple@L5
Format settings, BVOP : 1
Format settings, QPel : No
Format settings, GMC : No warppoints
Format settings, Matrix : Custom
Codec ID : XVID
Codec ID/Hint : XviD
Duration : 7mn 47s
Bit rate : 2 556 Kbps
Width : 720 pixels
Height : 544 pixels
Display aspect ratio : 4:3
Frame rate : 25.000 fps
Color space : YUV
Chroma subsampling : 4:2:0
Bit depth : 8 bits
Scan type : Progressive
Compression mode : Lossy
Bits/(Pixel*Frame) : 0.261
Stream size : 142 MiB (95%)
Writing library : XviD 65

Audio
ID : 1
Format : MPEG Audio
Format version : Version 1
Format profile : Layer 3
Mode : Joint stereo
Mode extension : MS Stereo
Codec ID : 55
Codec ID/Hint : MP3
Duration : 7mn 46s
Bit rate mode : Constant
Bit rate : 128 Kbps
Channel(s) : 2 channels
Sampling rate : 48.0 KHz
Compression mode : Lossy
Stream size : 7.13 MiB (5%)
Alignment : Aligned on interleaves
Interleave, duration : 80 ms (2.00 video frames)
Interleave, preload duratio : 504 ms
Writing library : LAME3.98r
Encoding settings : -m j -V 4 -q 2 -lowpass 17 -b 128
download

Kód: Vybrat vše

http://datoid.cz/ZbQf66/o-vodniku-cesilkovi-01-jak-hral-cesilko-s-knizetem-karty-animovany-68-dvbt-cz-romin-avi
http://datoid.cz/cI8dII/o-vodniku-cesilkovi-02-jak-vodnik-cesilko-zachranil-rusalku-animovany-68-dvbt-cz-romin-avi
http://datoid.cz/AcXwDp/o-vodniku-cesilkovi-03-jak-mu-krejcik-vodicka-vyspravil-hopsafrak-animovany-68-dvbt-cz-romin-avi
http://datoid.cz/OY0ikS/o-vodniku-cesilkovi-04-jak-mu-praskla-struna-animovany-68-dvbt-cz-romin-avi
http://datoid.cz/31jdC1/o-vodniku-cesilkovi-05-jak-cesilko-kupoval-capa-animovany-68-dvbt-cz-romin-avi
http://www.netshare.cz/ef478a6db5cd0007/(o_vodniku_cesilkovi)_06_jak_cesilko_vyzral_na_halamu_(animovany)_-68_-DVBT_CZ-(romin).avi
(o vodniku cesilkovi) 03 jak mu krejcik vodicka vyspravil hopsafrak (animovany) -68'-DVBT_CZ-(romin)

Kód: Vybrat vše

https://uloz.to/live/!K2DyjQKO1F99/o-vodniku-cesilkovi-03-jak-mu-krejcik-vodicka-vyspravil-hopsafrak-animovany-68-dvbt-cz-romin-avi
Naposledy upravil(a) sedum dne 13 bře 2018 17:20, celkem upraveno 1 x.
Důvod: Příspěvek byl upraven
Obrázek

Kód: Vybrat vše

http://datoid.cz/?p=143827  
Odpovědět

Zpět na „Animované“