Inside Out / V hlavě (2015)

Moderátor: KlopuX

Odpovědět
balu9
Palubní radista
Palubní radista
Příspěvky: 642
Registrován: 07 pro 2010 18:20
Dostal poděkování: 11 poděkování

Inside Out / V hlavě (2015)

Příspěvek od balu9 » 23 říj 2015 19:52

V hlavě / Inside Out (2015)

CZ titulky


Obrázek

Kód: Vybrat vše

http://www.csfd.cz/film/345734-v-hlave/prehled/
Animovaný / Dobrodružný / Komedie / Drama / Rodinný
USA, 2015, 102 min

Režie: Pete Docter, Ronaldo Del Carmen
Scénář: Pete Docter, Ronaldo Del Carmen, Meg LeFauve, Josh Cooley
Hudba: Michael Giacchino
Hrají: Diane Lane, Amy Poehler, Mindy Kaling, Bill Hader, Kyle MacLachlan, Phyllis Smith, Lewis Black, Richard Kind, Jess Harnell, Carlos Alazraqui, Frank Oz, Paula Poundstone, Bobby Moynihan, Josh Cooley, Flea, John Ratzenberger, Rashida Jones
Obsah: Období dospívání může být velice komplikované, a Riley, která je vytržena ze svého starého života na americkém Středozápadu poté, co se její otec musí kvůli novému zaměstnání přestěhovat do San Francisca, není žádnou výjimkou. Stejně jako my všichni, i Riley je ovládána svými emocemi – Radostí (Amy Poehler), Strachem (Bill Hader), Hněvem (Lewis Black), Znechucením (Mindy Kaling) a Smutkem (Phyllis Smith). Emoce žijí v Řídícím centru, centrále uvnitř Rileyiny mysli, odkud jí pomáhají vypořádat se s nástrahami všedních dní. Jak se Riley se svými emocemi spo…
Formát : AVI
Formát/ : Audio Video Interleave
Format_Profile : OpenDML
Format_Settings : rec
Velikost souboru : 1,39 GiB
Duration/String : 1h 34mn
Celkový BitRate : 2 098 Kbps
Použitý software : AVI-Mux GUI 1.17.8.3, Feb 16 201019:42:50

Video
ID : 0
Formát : MPEG-4 Visual
Format_Profile : Advanced Simple@L5
Format_Settings_BVOP/String : 2
Format_Settings_QPel/String : Ne
Format_Settings_GMC/String : 0 warppoint
Format_Settings_Matrix/String : Default (H.263)
CodecID : XVID
/ : XviD
Duration/String : 1h 34mn
Bit rate : 1 900 Kbps
Šířka : 720pixely
Výška : 400pixely
Poměr stran : 16:9
Frame rate : 30,000 fps
ColorSpace : YUV
ChromaSubsampling : 4:2:0
BitDepth/String : 8 bits
ScanType/String : Progressive
Bits/(Pixel*Frame) : 0.220
StreamSize/String : 1,26 GiB (91%)
Enkódoval : XviD 66

Audio
ID : 1
Formát : AC-3
Formát/ : Audio Coding 3
Format_Settings_ModeExtension : CM (complete main)
Format_Settings_Endianness : Big
CodecID : 2000
Duration/String : 1h 34mn
Bit rate : 192 Kbps
Kanál(y) : 2 kanály
Channel positions : Front: L R
Sampling rate : 48,0 KHz
BitDepth/String : 16 bits
StreamSize/String : 130 MiB (9%)
Interleave_Duration/String : 64 ms (1.92 video frames)
Interleave_Preload/String : 192 ms
Titul : AC3

Kód: Vybrat vše

http://download.hellshare.cz/rrr-avi/37809334/
http://download.hellshare.cz/rrr-srt/37809582/

Kód: Vybrat vše

http://fastshare.cz/5195179/inside.out.2015.hdrip.xvid.ac3-evo.avi
http://fastshare.cz/5195180/inside.out.2015.hdrip.xvid.ac3-evo.srt
Bez hesla a linky sa daju kombinovat.
luk.sol
Kachna
Kachna
Příspěvky: 16
Registrován: 09 lis 2008 15:07
Dostal poděkování: 3 poděkování

Re: Inside Out / V hlavě (2015)

Příspěvek od luk.sol » 30 říj 2015 11:45

V hlavě / Inside Out (2015)

CZ DABING,velikost 1,15GB

Kód: Vybrat vše

http://www.csfd.cz/film/345734-v-hlave/prehled/


Animovaný / Dobrodružný / Komedie / Drama / Rodinný
USA, 2015, 102 min

Režie: Pete Docter, Ronaldo Del Carmen
Scénář: Pete Docter, Ronaldo Del Carmen, Meg LeFauve, Josh Cooley
Hudba: Michael Giacchino
Hrají: Diane Lane, Amy Poehler, Mindy Kaling, Bill Hader, Kyle MacLachlan, Phyllis Smith, Lewis Black, Richard Kind, Jess Harnell, Carlos Alazraqui, Frank Oz, Paula Poundstone, Bobby Moynihan, Josh Cooley, Flea, John Ratzenberger, Rashida Jones
Obsah: Období dospívání může být velice komplikované, a Riley, která je vytržena ze svého starého života na americkém Středozápadu poté, co se její otec musí kvůli novému zaměstnání přestěhovat do San Francisca, není žádnou výjimkou. Stejně jako my všichni, i Riley je ovládána svými emocemi – Radostí (Amy Poehler), Strachem (Bill Hader), Hněvem (Lewis Black), Znechucením (Mindy Kaling) a Smutkem (Phyllis Smith). Emoce žijí v Řídícím centru, centrále uvnitř Rileyiny mysli, odkud jí pomáhají vypořádat se s nástrahami všedních dní. Jak se Riley se svými emocemi spo…


Kód: Vybrat vše

http://uloz.to/xppz2XVb/v-hlave-mkv

Kód: Vybrat vše

http://fastshare.cz/5223855/v-hlave.mkv

Kód: Vybrat vše

http://download.hellshare.cz/v-hlave-mkv/38068451/
Obrázek
warup
Navigátor
Navigátor
Příspěvky: 1300
Registrován: 05 zář 2014 21:01
Dal poděkování: 2 poděkování
Dostal poděkování: 1 poděkování

Inside Out / V hlavě (2015)

Příspěvek od warup » 11 úno 2017 12:47

Inside.Out.2015.1080p.BluRay.x264-SPARKS

Obrázek

info

Kód: Vybrat vše

http://www.csfd.cz/film/345734-v-hlave/prehled/
Obdobie dospievania môže byť veľmi komplikované. Riley, která je vytrhnutá zo svojho starého života na americkom Stredozápade potom, ako sa jej otec musí kvôli novej práci presťahovať do San Francisca, nie je žiadnou výnimkou. Rovnako ako my všetci, aj Riley je zmietaná svojimi emóciami – Eufóriou, Strachom, Hnevom, Nechutenstvom a Depresiou. Všetky tieto emócie spoločne nažívajú v tzv. Riadiacom centre v mozgu, odkiaľ jej pomáhajú vysporiadať sa s nástrahami bežných dní. V čase keď sa Riley snaží vyrovnať so zmenou, ktorú jej prináša presťahovanie sa na nové miesto, prepukne v Riadiacom centre zmätok. A hoci sa Eufória, ako Rileyina dominantná emócia snaží zachovať pozitívne myslenie, objavujú sa medzi jednotlivými pocitmi nezhody v tom, ako sa najlepšie vysporiadať so životnou zmenou, novým domovom a školou.Či sa už jednalo o dobrodružný balónový let vysoko v oblakoch, alebo o veľkomesto plné príšeriek, oskarový režisér Pete Docter sa vždy snažil zaviesť divákov na neobyčajné a nápadité miesta. V najnovšom prírastku do kolekcie Pixaroviek sa prenesieme na jedno z najpozoruhodnejších miest vôbec – priamo do ľudského mozgu.(Saturn)
kvalita
General
Unique ID : 205044006474095712386329336718892809959 (0x9A420A08EAB176B2BFA3E92F9DE13EE7)
Complete name : D:\vypalit\Inside.Out.2015.1080p.BluRay.x264-SPARKS.mkv
Format : Matroska
Format version : Version 4 / Version 2
File size : 4.37 GiB
Duration : 1h 34mn
Overall bit rate : 6 614 Kbps
Encoded date : UTC 2015-10-19 23:20:34
Writing application : mkvmerge v8.3.0 ('Over the Horizon') 64bit
Writing library : libebml v1.3.1 + libmatroska v1.4.2
DURATION : 01:34:37.846000000
NUMBER_OF_FRAMES : 532298
NUMBER_OF_BYTES : 1070983576
_STATISTICS_WRITING_APP : mkvmerge v8.3.0 ('Over the Horizon') 64bit
_STATISTICS_WRITING_DATE_UT : 2015-10-19 23:20:34
_STATISTICS_TAGS : BPS DURATION NUMBER_OF_FRAMES NUMBER_OF_BYTES

Video
ID : 1
Format : AVC
Format/Info : Advanced Video Codec
Format profile : High@L4.1
Format settings, CABAC : Yes
Format settings, ReFrames : 4 frames
Codec ID : V_MPEG4/ISO/AVC
Duration : 1h 34mn
Bit rate : 5 102 Kbps
Width : 1 920 pixels
Height : 1 080 pixels
Display aspect ratio : 16:9
Frame rate mode : Constant
Frame rate : 23.976 fps
Color space : YUV
Chroma subsampling : 4:2:0
Bit depth : 8 bits
Scan type : Progressive
Bits/(Pixel*Frame) : 0.103
Stream size : 3.29 GiB (75%)
Writing library : x264 core 148 r2638 7599210
Encoding settings : cabac=1 / ref=4 / deblock=1:0:0 / analyse=0x3:0x133 / me=umh / subme=7 / psy=1 / psy_rd=1.00:0.00 / mixed_ref=1 / me_range=16 / chroma_me=1 / trellis=1 / 8x8dct=1 / cqm=0 / deadzone=21,11 / fast_pskip=0 / chroma_qp_offset=-2 / threads=12 / lookahead_threads=2 / sliced_threads=0 / nr=0 / decimate=1 / interlaced=0 / bluray_compat=0 / constrained_intra=0 / bframes=3 / b_pyramid=2 / b_adapt=1 / b_bias=0 / direct=1 / weightb=1 / open_gop=0 / weightp=2 / keyint=250 / keyint_min=23 / scenecut=40 / intra_refresh=0 / rc_lookahead=40 / rc=2pass / mbtree=1 / bitrate=5102 / ratetol=1.0 / qcomp=0.60 / qpmin=0 / qpmax=69 / qpstep=4 / cplxblur=20.0 / qblur=0.5 / ip_ratio=1.40 / aq=1:1.00
Language : English
Default : Yes
Forced : No
DURATION : 01:34:37.806000000
NUMBER_OF_FRAMES : 136131
NUMBER_OF_BYTES : 3621372414
_STATISTICS_WRITING_APP : mkvmerge v8.3.0 ('Over the Horizon') 64bit
_STATISTICS_WRITING_DATE_UT : 2015-10-19 23:20:34
_STATISTICS_TAGS : BPS DURATION NUMBER_OF_FRAMES NUMBER_OF_BYTES

Audio
ID : 2
Format : DTS
Format/Info : Digital Theater Systems
Mode : 16
Format settings, Endianness : Big
Codec ID : A_DTS
Duration : 1h 34mn
Bit rate mode : Constant
Bit rate : 1 509 Kbps
Channel(s) : 6 channels
Channel positions : Front: L C R, Side: L R, LFE
Sampling rate : 48.0 KHz
Bit depth : 24 bits
Compression mode : Lossy
Stream size : 1 021 MiB (23%)
Language : English
Default : Yes
Forced : No

Menu
00:00:00.000 : en:00:00:00.000
00:07:22.692 : en:00:07:22.692
00:11:36.779 : en:00:11:36.779
00:15:46.404 : en:00:15:46.404
00:20:02.243 : en:00:20:02.243
00:25:21.436 : en:00:25:21.436
00:26:47.064 : en:00:26:47.064
00:30:10.183 : en:00:30:10.183
00:34:45.792 : en:00:34:45.792
00:36:02.285 : en:00:36:02.285
00:37:45.305 : en:00:37:45.305
00:41:27.360 : en:00:41:27.360
00:43:35.613 : en:00:43:35.613
00:45:19.508 : en:00:45:19.508
00:46:51.851 : en:00:46:51.851
00:50:02.458 : en:00:50:02.458
00:51:34.341 : en:00:51:34.341
00:56:12.160 : en:00:56:12.160
01:00:03.683 : en:01:00:03.683
01:01:17.841 : en:01:01:17.841
01:03:50.368 : en:01:03:50.368
01:06:27.191 : en:01:06:27.191
01:11:15.771 : en:01:11:15.771
01:13:40.541 : en:01:13:40.541
01:15:38.659 : en:01:15:38.659
01:20:00.337 : en:01:20:00.337
01:23:57.198 : en:01:23:57.198
01:26:18.339 : en:01:26:18.339
download

Kód: Vybrat vše

https://datoid.cz/NchRci/inside-out-2015-1080p-bluray-x264-sparks-mkv
Obrázek

Kód: Vybrat vše

http://datoid.cz/?p=143827  
warup
Navigátor
Navigátor
Příspěvky: 1300
Registrován: 05 zář 2014 21:01
Dal poděkování: 2 poděkování
Dostal poděkování: 1 poděkování

Inside Out / V hlavě (2015)

Příspěvek od warup » 11 úno 2017 15:30

Inside.Out.2015.1080p.BluRay.x264.YIFY

Obrázek

info

Kód: Vybrat vše

http://www.csfd.cz/film/345734-v-hlave/prehled/
Obdobie dospievania môže byť veľmi komplikované. Riley, která je vytrhnutá zo svojho starého života na americkom Stredozápade potom, ako sa jej otec musí kvôli novej práci presťahovať do San Francisca, nie je žiadnou výnimkou. Rovnako ako my všetci, aj Riley je zmietaná svojimi emóciami – Eufóriou, Strachom, Hnevom, Nechutenstvom a Depresiou. Všetky tieto emócie spoločne nažívajú v tzv. Riadiacom centre v mozgu, odkiaľ jej pomáhajú vysporiadať sa s nástrahami bežných dní. V čase keď sa Riley snaží vyrovnať so zmenou, ktorú jej prináša presťahovanie sa na nové miesto, prepukne v Riadiacom centre zmätok. A hoci sa Eufória, ako Rileyina dominantná emócia snaží zachovať pozitívne myslenie, objavujú sa medzi jednotlivými pocitmi nezhody v tom, ako sa najlepšie vysporiadať so životnou zmenou, novým domovom a školou.Či sa už jednalo o dobrodružný balónový let vysoko v oblakoch, alebo o veľkomesto plné príšeriek, oskarový režisér Pete Docter sa vždy snažil zaviesť divákov na neobyčajné a nápadité miesta. V najnovšom prírastku do kolekcie Pixaroviek sa prenesieme na jedno z najpozoruhodnejších miest vôbec – priamo do ľudského mozgu.(Saturn)
kvalita

Kód: Vybrat vše

General
Complete name               : D:\vypalit\Inside.Out.2015.1080p.BluRay.x264.YIFY.mp4
Format                      : MPEG-4
Format profile              : Base Media
Codec ID                    : isom
File size                   : 1.44 GiB
Duration                    : 1h 34mn
Overall bit rate mode       : Variable
Overall bit rate            : 2 180 Kbps
Encoded date                : UTC 2015-10-20 09:46:52
Tagged date                 : UTC 2015-10-20 09:46:52

Video
ID                          : 1
Format                      : AVC
Format/Info                 : Advanced Video Codec
Format profile              : High@L4.1
Format settings, CABAC      : Yes
Format settings, ReFrames   : 4 frames
Codec ID                    : avc1
Codec ID/Info               : Advanced Video Coding
Duration                    : 1h 34mn
Bit rate                    : 2 082 Kbps
Maximum bit rate            : 13.2 Mbps
Width                       : 1 920 pixels
Height                      : 1 080 pixels
Display aspect ratio        : 16:9
Frame rate mode             : Constant
Frame rate                  : 23.976 fps
Color space                 : YUV
Chroma subsampling          : 4:2:0
Bit depth                   : 8 bits
Scan type                   : Progressive
Bits/(Pixel*Frame)          : 0.042
Stream size                 : 1.38 GiB (96%)
Writing library             : x264 core 123 r2189 35cf912
Encoding settings           : cabac=1 / ref=4 / deblock=1:-1:-1 / analyse=0x3:0x133 / me=umh / subme=9 / psy=1 / psy_rd=1.00:0.15 / mixed_ref=1 / me_range=24 / chroma_me=1 / trellis=2 / 8x8dct=1 / cqm=0 / deadzone=21,11 / fast_pskip=0 / chroma_qp_offset=-3 / threads=12 / sliced_threads=0 / nr=0 / decimate=1 / interlaced=0 / bluray_compat=0 / constrained_intra=0 / bframes=3 / b_pyramid=2 / b_adapt=2 / b_bias=0 / direct=3 / weightb=1 / open_gop=0 / weightp=2 / keyint=250 / keyint_min=23 / scenecut=40 / intra_refresh=0 / rc_lookahead=60 / rc=2pass / mbtree=1 / bitrate=2082 / ratetol=1.0 / qcomp=0.60 / qpmin=0 / qpmax=69 / qpstep=4 / cplxblur=20.0 / qblur=0.5 / vbv_maxrate=31250 / vbv_bufsize=31250 / nal_hrd=none / ip_ratio=1.40 / aq=1:1.00
Encoded date                : UTC 2015-10-20 09:46:52
Tagged date                 : UTC 2015-10-20 09:47:04
Color range                 : Limited
Color primaries             : BT.709
Matrix coefficients         : BT.709

Audio
ID                          : 2
Format                      : AAC
Format/Info                 : Advanced Audio Codec
Format profile              : LC
Codec ID                    : 40
Duration                    : 1h 34mn
Bit rate mode               : Variable
Bit rate                    : 93.6 Kbps
Maximum bit rate            : 106 Kbps
Channel(s)                  : 2 channels
Channel positions           : Front: L R
Sampling rate               : 48.0 KHz
Compression mode            : Lossy
Stream size                 : 63.4 MiB (4%)
Language                    : English
Encoded date                : UTC 2015-10-20 09:47:03
Tagged date                 : UTC 2015-10-20 09:47:04
download

Kód: Vybrat vše

https://uloz.to/!Pfau7Kk2MNVm/inside-out-2015-1080p-bluray-x264-yify-mp4
Obrázek

Kód: Vybrat vše

http://datoid.cz/?p=143827  
Odpovědět

Zpět na „Animované“